Sci-Fi

The Fifth Element [1997] 1264x528 HD Mp4 X264 AAC 2 ch 3Li

  • Download 5x Faster
  • Download torrent
  • Direct Download
  • Rate this torrent +  |  -
The Fifth Element [1997] 1264x528 HD Mp4 X264 AAC 2 ch 3Li

Free and Direct Download with Usenet.nl 300GB+ free


Torrent info

Name:The Fifth Element [1997] 1264x528 HD Mp4 X264 AAC 2 ch 3Li

Total Size: 1.46 GB

Magnet: Magnet Link

Seeds: 3

Leechers: 4

Stream: Watch Online @ Movie4u

Last Updated: 2011-03-21 09:40:51 (Update Now)

Torrent added: 2009-09-13 13:38:54





Torrent Files List


snapshot20090903032947.jpg (Size: 1.46 GB) (Files: 12)

 snapshot20090903032947.jpg

76.28 KB

 snapshot20090903033020.jpg

62.13 KB

 snapshot20090903033606.jpg

73.40 KB

 snapshot20090903033731.jpg

65.49 KB

 snapshot20090903033826.jpg

91.92 KB

 snapshot20090903033930.jpg

79.23 KB

 snapshot20090903034023.jpg

75.68 KB

 snapshot20090903034524.jpg

76.95 KB

 The Fifth Element.mp4

1.46 GB

 The Fifth Element.mp4.txt

4.24 KB

 Torrent downloaded from Demonoid.com.txt

0.05 KB

 tracked_by_h33t_com.txt

0.02 KB
 

Announce URL: http://tracker.ilibr.org:6969/announce

Torrent description

General
Complete name : The Fifth Element.mp4
Format : MPEG-4
Format profile : Base Media
Codec ID : isom
File size : 1.46 GiB
Duration : 2h 5mn
Overall bit rate : 1 664 Kbps

Video
ID : 1
Format : AVC
Format/Info : Advanced Video Codec
Format profile : [email protected]
Format settings, CABAC : Yes
Format settings, ReFrames : 3 frames
Codec ID : avc1
Codec ID/Info : Advanced Video Coding
Duration : 2h 5mn
Bit rate mode : Variable
Bit rate : 1 532 Kbps
Nominal bit rate : 1 507 Kbps
Maximum bit rate : 10.3 Mbps
Width : 1 264 pixels
Height : 528 pixels
Display aspect ratio : 2.35:1
Frame rate mode : Constant
Frame rate : 23.976 fps
Resolution : 24 bits
Colorimetry : 4:2:0
Scan type : Progressive
Bits/(Pixel*Frame) : 0.096
Stream size : 1.35 GiB (92%)
Writing library : x264 core 68 r1183M f21daff

Audio
ID : 2
Format : AAC
Format/Info : Advanced Audio Codec
Format version : Version 4
Format profile : LC
Format settings, SBR : No
Codec ID : 40
Duration : 2h 5mn
Bit rate mode : Variable
Bit rate : 128 Kbps
Maximum bit rate : 163 Kbps
Channel(s) : 2 channels
Channel positions : L R
Sampling rate : 48.0 KHz
Resolution : 16 bits
Stream size : 115 MiB (8%)

related torrents

Torrent name

health leech seeds Size
 

comments (0)

Main Menu