Action

Shooter [2007] 1264x528 HD Mp4 X264 AAC 2 ch 3Li

  • Download 5x Faster
  • Download torrent
  • Direct Download
  • Rate this torrent +  |  -
Shooter [2007] 1264x528 HD Mp4 X264 AAC 2 ch 3Li

Anonymous and Free Direct Download 300GB+


Torrent info

Name:Shooter [2007] 1264x528 HD Mp4 X264 AAC 2 ch 3Li

Total Size: 1.44 GB

Magnet: Magnet Link

Seeds: 0

Leechers: 0

Stream: Watch Online @ Movie4u

Last Updated: 2014-02-05 06:34:53 (Update Now)

Torrent added: 2009-09-13 13:38:18



VPN For Torrents

Torrent Files List


Shooter.mp4 (Size: 1.44 GB) (Files: 11)

 Shooter.mp4

1.44 GB

 Shooter.mp4.txt

4.30 KB

 snapshot20090901074315.jpg

76.83 KB

 snapshot20090901074449.jpg

77.86 KB

 snapshot20090901074844.jpg

94.42 KB

 snapshot20090901074955.jpg

69.69 KB

 snapshot20090901075219.jpg

57.05 KB

 snapshot20090901075333.jpg

84.27 KB

 snapshot20090901075343.jpg

58.48 KB

 Torrent downloaded from Demonoid.com.txt

0.05 KB

 tracked_by_h33t_com.txt

0.02 KB
 

Announce URL:

Torrent description

General
Complete name : Shooter.mp4
Format : MPEG-4
Format profile : Base Media
Codec ID : isom
File size : 1.44 GiB
Duration : 2h 5mn
Overall bit rate : 1 640 Kbps

Video
ID : 1
Format : AVC
Format/Info : Advanced Video Codec
Format profile : [email protected]
Format settings, CABAC : Yes
Format settings, ReFrames : 2 frames
Codec ID : avc1
Codec ID/Info : Advanced Video Coding
Duration : 2h 5mn
Bit rate mode : Variable
Bit rate : 1 510 Kbps
Maximum bit rate : 6 207 Kbps
Width : 1 264 pixels
Height : 528 pixels
Display aspect ratio : 2.35:1
Frame rate mode : Constant
Frame rate : 23.976 fps
Resolution : 24 bits
Colorimetry : 4:2:0
Scan type : Progressive
Bits/(Pixel*Frame) : 0.094
Stream size : 1.32 GiB (92%)
Writing library : x264 core 68 r1183M f21daff
Language : English

Audio
ID : 2
Format : AAC
Format/Info : Advanced Audio Codec
Format version : Version 4
Format profile : LC
Format settings, SBR : No
Codec ID : 40
Duration : 2h 5mn
Bit rate mode : Variable
Bit rate : 128 Kbps
Maximum bit rate : 199 Kbps
Channel(s) : 2 channels
Channel positions : L R
Sampling rate : 48.0 KHz
Resolution : 16 bits
Stream size : 115 MiB (8%)
Language : English

related torrents

Torrent name

health leech seeds Size
 


comments (0)

Main Menu