Action

Rush Hour 3 [2007] 1264x544 HD Mp4 X264 AAC 2 ch 3Li

  • Download 5x Faster
  • Download torrent
  • Direct Download
  • Rate this torrent +  |  -
Rush Hour 3 [2007] 1264x544 HD Mp4 X264 AAC 2 ch 3Li

Anonymous and Free Direct Download 300GB+


Torrent info

Name:Rush Hour 3 [2007] 1264x544 HD Mp4 X264 AAC 2 ch 3Li

Total Size: 1.42 GB

Magnet: Magnet Link

Seeds: 2

Leechers: 1

Stream: Watch Online @ Movie4u

Last Updated: 0000-00-00 00:00:00 (Update Now)

Torrent added: 2009-09-13 13:37:54



VPN For Torrents

Torrent Files List


Rush Hour 3.mp4 (Size: 1.42 GB) (Files: 14)

 Rush Hour 3.mp4

1.42 GB

 Rush Hour 3.mp4.txt

4.42 KB

 Rush Hour 3.srt

74.26 KB

 snapshot20090902093602.jpg

87.59 KB

 snapshot20090902093629.jpg

79.97 KB

 snapshot20090902093923.jpg

82.49 KB

 snapshot20090902094001.jpg

64.66 KB

 snapshot20090902094128.jpg

84.33 KB

 snapshot20090902094230.jpg

69.20 KB

 snapshot20090902094256.jpg

79.98 KB

 snapshot20090902094315.jpg

96.24 KB

 snapshot20090902094357.jpg

101.76 KB

 Torrent downloaded from Demonoid.com.txt

0.05 KB

 tracked_by_h33t_com.txt

0.02 KB
 

Announce URL: http://tracker.publicbt.com/announce

Torrent description

General
Complete name : Rush Hour 3.mp4
Format : MPEG-4
Format profile : Base Media
Codec ID : isom
File size : 1.42 GiB
Duration : 1h 30mn
Overall bit rate : 2 235 Kbps

Video
ID : 1
Format : AVC
Format/Info : Advanced Video Codec
Format profile : Main@L4.1
Format settings, CABAC : Yes
Format settings, ReFrames : 3 frames
Codec ID : avc1
Codec ID/Info : Advanced Video Coding
Duration : 1h 30mn
Bit rate mode : Variable
Bit rate : 2 103 Kbps
Nominal bit rate : 2 140 Kbps
Maximum bit rate : 6 509 Kbps
Width : 1 264 pixels
Height : 544 pixels
Display aspect ratio : 2.35:1
Frame rate mode : Constant
Frame rate : 23.976 fps
Resolution : 24 bits
Colorimetry : 4:2:0
Scan type : Progressive
Bits/(Pixel*Frame) : 0.128
Stream size : 1.33 GiB (94%)
Title : Rush Hour 3
Writing library : x264 core 68 r1183M f21daff

Audio
ID : 2
Format : AAC
Format/Info : Advanced Audio Codec
Format version : Version 4
Format profile : LC
Format settings, SBR : No
Codec ID : 40
Duration : 1h 30mn
Bit rate mode : Variable
Bit rate : 127 Kbps
Maximum bit rate : 169 Kbps
Channel(s) : 2 channels
Channel positions : L R
Sampling rate : 48.0 KHz
Resolution : 16 bits
Stream size : 82.8 MiB (6%)
Language : English

related torrents

Torrent name

health leech seeds Size
 


comments (0)

Main Menu