Action

Max Payne [2008] 1280x544 HD Mp4 H264 AAC 5 1 ch 3Li

  • Download 5x Faster
  • Download torrent
  • Direct Download
  • Rate this torrent +  |  -
Max Payne [2008] 1280x544 HD Mp4 H264 AAC 5 1 ch 3Li

Free and Direct Download with Usenet 300GB+ free


Torrent info

Name:Max Payne [2008] 1280x544 HD Mp4 H264 AAC 5 1 ch 3Li

Total Size: 1.37 GB

Magnet: Magnet Link

Seeds: 2

Leechers: 2

Stream: Watch Online @ Movie4u

Last Updated: 2011-03-22 00:38:16 (Update Now)

Torrent added: 2009-09-13 13:37:47




Torrent Files List


Max Payne.mp4 (Size: 1.37 GB) (Files: 5)

 Max Payne.mp4

1.37 GB

 Max Payne.mp4.txt

6.04 KB

 Max Payne.srt

55.19 KB

 Torrent downloaded from Demonoid.com.txt

0.05 KB

 tracked_by_h33t_com.txt

0.02 KB
 

Announce URL: http://tracker.publicbt.com/announce

Torrent description

General
Complete name : Max Payne.mp4
Format : MPEG-4
Format profile : Base Media
Codec ID : isom
File size : 1.37 GiB
Duration : 1h 42mn
Overall bit rate : 1 907 Kbps
Encoded date : UTC 2009-08-26 21:19:35
Tagged date : UTC 2009-08-26 21:19:35

Video
ID : 1
Format : AVC
Format/Info : Advanced Video Codec
Format profile : [email protected]
Format settings, CABAC : Yes
Format settings, ReFrames : 3 frames
Codec ID : avc1
Codec ID/Info : Advanced Video Coding
Duration : 1h 42mn
Bit rate mode : Variable
Bit rate : 1 707 Kbps
Nominal bit rate : 1 720 Kbps
Maximum bit rate : 19.5 Mbps
Width : 1 280 pixels
Height : 544 pixels
Display aspect ratio : 2.35:1
Frame rate mode : Constant
Frame rate : 23.976 fps
Resolution : 24 bits
Colorimetry : 4:2:0
Scan type : Progressive
Bits/(Pixel*Frame) : 0.102
Stream size : 1.23 GiB (90%)
Writing library : x264 core 65 r999kMod cc51047
Encoding settings : cabac=1 / ref=3 / deblock=1:0:0 / analyse=0x1:0 / me=dia / subme=6 / psy_rd=1.0:0.0 / mixed_ref=1 / me_range=16 / chroma_me=1 / trellis=0 / 8x8dct=0 / cqm=0 / deadzone=21,11 / chroma_qp_offset=-2 / threads=2 / thread_queue=2 / nr=0 / decimate=1 / mbaff=0 / bframes=3 / b_pyramid=1 / b_adapt=1 / b_bias=0 / direct=1 / wpredb=0 / keyint=250 / keyint_min=25 / scenecut=40(pre) / rc=abr / bitrate=1720 / ratetol=1.0 / qcomp=0.60 / qpmin=10 / qpmax=51 / qpstep=4 / ip_ratio=1.40 / pb_ratio=1.30 / aq=1:1.00
Encoded date : UTC 2009-08-26 21:19:35
Tagged date : UTC 2009-08-26 21:21:39

Audio
ID : 2
Format : AAC
Format/Info : Advanced Audio Codec
Format version : Version 4
Format profile : LC
Format settings, SBR : No
Codec ID : 40
Duration : 1h 42mn
Bit rate mode : Variable
Bit rate : 192 Kbps
Maximum bit rate : 402 Kbps
Channel(s) : 6 channels
Channel positions : Front: L C R, Rear: L R, LFE
Sampling rate : 48.0 KHz
Resolution : 16 bits
Stream size : 144 MiB (10%)
Encoded date : UTC 2009-08-26 21:21:32
Tagged date : UTC 2009-08-26 21:21:39

related torrents

Torrent name

health leech seeds Size
 

comments (0)

Main Menu