Sci-Fi

Ironman [2008] 1264x528 HD Mp4 X264 AAC 2 ch 3Li

  • Download 5x Faster
  • Download torrent
  • Direct Download
  • Rate this torrent +  |  -
Ironman [2008] 1264x528 HD Mp4 X264 AAC 2 ch 3Li

Free and Direct Download with Usenet.nl 300GB+ free


Torrent info

Name:Ironman [2008] 1264x528 HD Mp4 X264 AAC 2 ch 3Li

Total Size: 1.44 GB

Magnet: Magnet Link

Seeds: 0

Leechers: 0

Stream: Watch Online @ Movie4u

Last Updated: 0000-00-00 00:00:00 (Update Now)

Torrent added: 2009-09-13 13:37:41





Torrent Files List


Ironman.mp4 (Size: 1.44 GB) (Files: 15)

 Ironman.mp4

1.44 GB

 Ironman.mp4.txt

4.39 KB

 Ironman.srt

91.66 KB

 snapshot20090902203527.jpg

68.14 KB

 snapshot20090902203613.jpg

74.19 KB

 snapshot20090902203640.jpg

107.24 KB

 snapshot20090902203702.jpg

78.32 KB

 snapshot20090902203909.jpg

91.36 KB

 snapshot20090902204018.jpg

117.09 KB

 snapshot20090902204102.jpg

72.88 KB

 snapshot20090902204131.jpg

77.20 KB

 snapshot20090902204211.jpg

60.33 KB

 snapshot20090902204317.jpg

83.06 KB

 Torrent downloaded from Demonoid.com.txt

0.05 KB

 tracked_by_h33t_com.txt

0.02 KB
 

Announce URL:

Torrent description

General
Complete name : Ironman.mp4
Format : MPEG-4
Format profile : Base Media
Codec ID : isom
File size : 1.44 GiB
Duration : 2h 6mn
Overall bit rate : 1 633 Kbps

Video
ID : 1
Format : AVC
Format/Info : Advanced Video Codec
Format profile : [email protected]
Format settings, CABAC : Yes
Format settings, ReFrames : 3 frames
Codec ID : avc1
Codec ID/Info : Advanced Video Coding
Duration : 2h 6mn
Bit rate mode : Variable
Bit rate : 1 505 Kbps
Maximum bit rate : 6 396 Kbps
Width : 1 264 pixels
Height : 528 pixels
Display aspect ratio : 2.35:1
Frame rate mode : Constant
Frame rate : 23.976 fps
Resolution : 24 bits
Colorimetry : 4:2:0
Scan type : Progressive
Bits/(Pixel*Frame) : 0.094
Stream size : 1.32 GiB (92%)
Title : Ironman
Writing library : x264 core 68 r1183M f21daff

Audio
ID : 2
Format : AAC
Format/Info : Advanced Audio Codec
Format version : Version 4
Format profile : LC
Format settings, SBR : No
Codec ID : 40
Duration : 2h 6mn
Bit rate mode : Variable
Bit rate : 128 Kbps
Maximum bit rate : 179 Kbps
Channel(s) : 2 channels
Channel positions : L R
Sampling rate : 48.0 KHz
Resolution : 16 bits
Stream size : 115 MiB (8%)
Title : Ironman
Language : English

related torrents

Torrent name

health leech seeds Size
 

comments (0)

Main Menu