Sci-Fi

Independence Day [1996] 1264x544 HD Mp4 X264 AAC 2 ch 3Li

  • Download 5x Faster
  • Download torrent
  • Direct Download
  • Rate this torrent +  |  -
Independence Day [1996] 1264x544 HD Mp4 X264 AAC 2 ch 3Li

Free and Direct Download with Usenet.nl 300GB+ free


Torrent info

Name:Independence Day [1996] 1264x544 HD Mp4 X264 AAC 2 ch 3Li

Total Size: 1.42 GB

Magnet: Magnet Link

Seeds: 0

Leechers: 4

Stream: Watch Online @ Movie4u

Last Updated: 2011-01-26 18:29:12 (Update Now)

Torrent added: 2009-09-13 13:37:40





Torrent Files List


Independence Day.mp4 (Size: 1.42 GB) (Files: 9)

 Independence Day.mp4

1.42 GB

 Independence Day.mp4.txt

4.55 KB

 Independence Day.srt

107.21 KB

 snapshot20090909104249.jpg

64.10 KB

 snapshot20090909104403.jpg

129.26 KB

 snapshot20090909104455.jpg

105.92 KB

 snapshot20090909104715.jpg

95.35 KB

 Torrent downloaded from Demonoid.com.txt

0.05 KB

 tracked_by_h33t_com.txt

0.02 KB
 

Announce URL: http://tracker.publicbt.com/announce

Torrent description

General
Complete name : Independence Day.mp4
Format : MPEG-4
Format profile : Base Media
Codec ID : isom
File size : 1.42 GiB
Duration : 2h 24mn
Overall bit rate : 1 404 Kbps

Video
ID : 1
Format : AVC
Format/Info : Advanced Video Codec
Format profile : [email protected]
Format settings, CABAC : Yes
Format settings, ReFrames : 3 frames
Codec ID : avc1
Codec ID/Info : Advanced Video Coding
Duration : 2h 24mn
Bit rate mode : Variable
Bit rate : 1 272 Kbps
Nominal bit rate : 1 293 Kbps
Maximum bit rate : 8 843 Kbps
Width : 1 264 pixels
Height : 544 pixels
Display aspect ratio : 2.35:1
Frame rate mode : Constant
Frame rate : 23.976 fps
Resolution : 24 bits
Colorimetry : 4:2:0
Scan type : Progressive
Bits/(Pixel*Frame) : 0.077
Stream size : 1.29 GiB (91%)
Title : Independence Day By ELi
Writing library : x264 core 68 r1183M f21daff

Audio
ID : 2
Format : AAC
Format/Info : Advanced Audio Codec
Format version : Version 4
Format profile : LC
Format settings, SBR : No
Codec ID : 40
Duration : 2h 24mn
Bit rate mode : Variable
Bit rate : 128 Kbps
Maximum bit rate : 167 Kbps
Channel(s) : 2 channels
Channel positions : L R
Sampling rate : 48.0 KHz
Resolution : 16 bits
Stream size : 133 MiB (9%)
Title : Independence Day
Language : English

related torrents

Torrent name

health leech seeds Size
 

comments (0)

Main Menu