Action

Wanted [2008] 1264x528 HD Mp4 X264 AAC 2 ch 3Li

  • Download 5x Faster
  • Download torrent
  • Direct Download
  • Rate this torrent +  |  -
Wanted [2008] 1264x528 HD Mp4 X264 AAC 2 ch 3Li

Free and Direct Download with Usenet.nl 300GB+ free


Torrent info

Name:Wanted [2008] 1264x528 HD Mp4 X264 AAC 2 ch 3Li

Total Size: 1.45 GB

Magnet: Magnet Link

Seeds: 0

Leechers: 0

Stream: Watch Online @ Movie4u

Last Updated: 2015-12-08 21:50:31 (Update Now)

Torrent added: 2009-09-13 13:37:14





Torrent Files List


snapshot20090904104343.jpg (Size: 1.45 GB) (Files: 14)

 snapshot20090904104343.jpg

80.48 KB

 snapshot20090904104532.jpg

91.84 KB

 snapshot20090904104546.jpg

95.95 KB

 snapshot20090904104710.jpg

95.28 KB

 snapshot20090904104758.jpg

80.18 KB

 snapshot20090904104826.jpg

62.11 KB

 snapshot20090904104843.jpg

63.08 KB

 snapshot20090904104907.jpg

72.72 KB

 snapshot20090904105028.jpg

66.66 KB

 Torrent downloaded from Demonoid.com.txt

0.05 KB

 tracked_by_h33t_com.txt

0.02 KB

 Wanted.mp4

1.45 GB

 Wanted.mp4.txt

4.38 KB

 Wanted.srt

62.25 KB
 

tracker

leech seeds
 

Torrent description

General
Complete name : Wanted.mp4
Format : MPEG-4
Format profile : Base Media
Codec ID : isom
File size : 1.45 GiB
Duration : 1h 50mn
Overall bit rate : 1 884 Kbps

Video
ID : 1
Format : AVC
Format/Info : Advanced Video Codec
Format profile : [email protected]
Format settings, CABAC : Yes
Format settings, ReFrames : 3 frames
Codec ID : avc1
Codec ID/Info : Advanced Video Coding
Duration : 1h 50mn
Bit rate mode : Variable
Bit rate : 1 744 Kbps
Maximum bit rate : 13.0 Mbps
Width : 1 264 pixels
Height : 528 pixels
Display aspect ratio : 2.35:1
Frame rate mode : Constant
Frame rate : 23.976 fps
Resolution : 24 bits
Colorimetry : 4:2:0
Scan type : Progressive
Bits/(Pixel*Frame) : 0.109
Stream size : 1.35 GiB (93%)
Title : Wanted
Writing library : x264 core 68 r1183M f21daff

Audio
ID : 2
Format : AAC
Format/Info : Advanced Audio Codec
Format version : Version 4
Format profile : LC
Format settings, SBR : No
Codec ID : 40
Duration : 1h 50mn
Bit rate mode : Variable
Bit rate : 128 Kbps
Maximum bit rate : 157 Kbps
Channel(s) : 2 channels
Channel positions : L R
Sampling rate : 48.0 KHz
Resolution : 16 bits
Stream size : 101 MiB (7%)
Title : Wanted
Language : English

related torrents

Torrent name

health leech seeds Size
 

comments (0)

Main Menu