Action

Transporter 2 [2005] 1280x544 HD Mp4 H264 AAC 2 ch 3Li

  • Download 5x Faster
  • Download torrent
  • Direct Download
  • Rate this torrent +  |  -
Transporter 2 [2005] 1280x544 HD Mp4 H264 AAC 2 ch 3Li

Anonymous and Direct Download 300GB+ free


Torrent info

Name:Transporter 2 [2005] 1280x544 HD Mp4 H264 AAC 2 ch 3Li

Total Size: 1.28 GB

Magnet: Magnet Link

Seeds: 0

Leechers: 0

Stream: Watch Online @ Movie4u

Last Updated: 2015-09-03 00:54:25 (Update Now)

Torrent added: 2009-09-13 13:37:04




Torrent Files List


http.h33t.com tracked by h33t.com.txt (Size: 1.28 GB) (Files: 11)

 http.h33t.com tracked by h33t.com.txt

0.02 KB

 snapshot20090827073809.jpg

91.21 KB

 snapshot20090827073925.jpg

96.91 KB

 snapshot20090827074155.jpg

67.99 KB

 snapshot20090827074220.jpg

75.82 KB

 Torrent downloaded from Demonoid.com.txt

0.05 KB

 tracked_by_h33t_com.txt

0.02 KB

 Transporter 2 sample.avi

6.09 MB

 Transporter 2 THUMBNAILS.jpg

337.91 KB

 Transporter 2.mp4

1.27 GB

 Transporter 2.mp4.txt

6.00 KB
 

tracker

leech seeds
 

Torrent description

General
Complete name : Transporter 2.mp4
Format : MPEG-4
Format profile : Base Media
Codec ID : isom
File size : 1.27 GiB
Duration : 1h 28mn
Overall bit rate : 2 068 Kbps
Encoded date : UTC 2009-08-25 01:16:46
Tagged date : UTC 2009-08-25 01:16:46

Video
ID : 1
Format : AVC
Format/Info : Advanced Video Codec
Format profile : [email protected]
Format settings, CABAC : Yes
Format settings, ReFrames : 3 frames
Codec ID : avc1
Codec ID/Info : Advanced Video Coding
Duration : 1h 28mn
Bit rate mode : Variable
Bit rate : 1 936 Kbps
Nominal bit rate : 1 990 Kbps
Maximum bit rate : 7 686 Kbps
Width : 1 280 pixels
Height : 544 pixels
Display aspect ratio : 2.35:1
Frame rate mode : Constant
Frame rate : 23.976 fps
Resolution : 24 bits
Colorimetry : 4:2:0
Scan type : Progressive
Bits/(Pixel*Frame) : 0.116
Stream size : 1.19 GiB (94%)
Writing library : x264 core 65 r999kMod cc51047
Encoding settings : cabac=1 / ref=3 / deblock=1:0:0 / analyse=0x1:0 / me=dia / subme=6 / psy_rd=1.0:0.0 / mixed_ref=1 / me_range=16 / chroma_me=1 / trellis=0 / 8x8dct=0 / cqm=0 / deadzone=21,11 / chroma_qp_offset=-2 / threads=2 / thread_queue=2 / nr=0 / decimate=1 / mbaff=0 / bframes=3 / b_pyramid=1 / b_adapt=1 / b_bias=0 / direct=1 / wpredb=0 / keyint=250 / keyint_min=25 / scenecut=40(pre) / rc=abr / bitrate=1990 / ratetol=1.0 / qcomp=0.60 / qpmin=10 / qpmax=51 / qpstep=4 / ip_ratio=1.40 / pb_ratio=1.30 / aq=1:1.00
Encoded date : UTC 2009-08-25 01:16:46
Tagged date : UTC 2009-08-25 01:18:23

Audio
ID : 2
Format : AAC
Format/Info : Advanced Audio Codec
Format version : Version 4
Format profile : LC
Format settings, SBR : No
Codec ID : 40
Duration : 1h 28mn
Bit rate mode : Variable
Bit rate : 129 Kbps
Maximum bit rate : 166 Kbps
Channel(s) : 2 channels
Channel positions : L R
Sampling rate : 48.0 KHz
Resolution : 16 bits
Stream size : 81.2 MiB (6%)
Encoded date : UTC 2009-08-25 01:18:18
Tagged date : UTC 2009-08-25 01:18:23

related torrents

Torrent name

health leech seeds Size
 


comments (0)

Main Menu