Action

Transporter 1 [2002] 1280x720 HD Mp4 H264 AAC 2 ch 3Li

  • Download 5x Faster
  • Download torrent
  • Direct Download
  • Rate this torrent +  |  -
Transporter 1 [2002] 1280x720 HD Mp4 H264 AAC 2 ch 3Li

Free and Direct Download with Usenet.nl 300GB+ free


Torrent info

Name:Transporter 1 [2002] 1280x720 HD Mp4 H264 AAC 2 ch 3Li

Total Size: 1.37 GB

Magnet: Magnet Link

Seeds: 0

Leechers: 0

Stream: Watch Online @ Movie4u

Last Updated: 2015-07-31 03:58:27 (Update Now)

Torrent added: 2009-09-13 13:37:02





Torrent Files List


http.h33t.com tracked by h33t.com.txt (Size: 1.37 GB) (Files: 11)

 http.h33t.com tracked by h33t.com.txt

0.02 KB

 snapshot20090827075628.jpg

83.04 KB

 snapshot20090827075644.jpg

97.31 KB

 snapshot20090827075701.jpg

100.90 KB

 snapshot20090827075740.jpg

84.16 KB

 The Transporter sample.mp4

3.84 MB

 The Transporter THUMBNAILS.jpg

369.67 KB

 The Transporter.mp4

1.37 GB

 The Transporter.mp4.txt

4.75 KB

 Torrent downloaded from Demonoid.com.txt

0.05 KB

 tracked_by_h33t_com.txt

0.02 KB
 

tracker

leech seeds
 

Torrent description

General
Complete name : F:\HD Movies 2\Transporter 1 [2002] BDRip 1280x720 Mp4.H264.AAC LC.2 ch\The Transporter.mp4
Format : MPEG-4
Format profile : Base Media
Codec ID : isom
File size : 1.37 GiB
Duration : 1h 32mn
Overall bit rate : 2 127 Kbps
Encoded date : UTC 2009-08-25 03:13:22
Tagged date : UTC 2009-08-25 03:13:22

Video
ID : 1
Format : AVC
Format/Info : Advanced Video Codec
Format profile : [email protected]
Format settings, CABAC : No
Format settings, ReFrames : 1 frame
Codec ID : avc1
Codec ID/Info : Advanced Video Coding
Duration : 1h 32mn
Bit rate mode : Variable
Bit rate : 1 996 Kbps
Maximum bit rate : 9 335 Kbps
Width : 1 280 pixels
Height : 720 pixels
Display aspect ratio : 16:9
Frame rate mode : Constant
Frame rate : 23.976 fps
Resolution : 24 bits
Colorimetry : 4:2:0
Scan type : Progressive
Bits/(Pixel*Frame) : 0.090
Stream size : 1.28 GiB (94%)
Tagged date : UTC 2009-08-25 03:14:39

Audio
ID : 2
Format : AAC
Format/Info : Advanced Audio Codec
Format version : Version 4
Format profile : LC
Format settings, SBR : No
Codec ID : 40
Duration : 1h 32mn
Bit rate mode : Variable
Bit rate : 128 Kbps
Maximum bit rate : 164 Kbps
Channel(s) : 2 channels
Channel positions : L R
Sampling rate : 48.0 KHz
Resolution : 16 bits
Stream size : 84.3 MiB (6%)
Encoded date : UTC 2009-08-25 03:14:31
Tagged date : UTC 2009-08-25 03:14:39

related torrents

Torrent name

health leech seeds Size
 

comments (0)

Main Menu