Sci-Fi

Hulk [2003] 1280X688 HD Mp4 H264 AAC 2 ch 3Li

  • Download 5x Faster
  • Download torrent
  • Direct Download
  • Rate this torrent +  |  -
Hulk [2003] 1280X688 HD Mp4 H264 AAC 2 ch 3Li

Free and Direct Download with Usenet 300GB+ free


Torrent info

Name:Hulk [2003] 1280X688 HD Mp4 H264 AAC 2 ch 3Li

Total Size: 1.37 GB

Magnet: Magnet Link

Seeds: 0

Leechers: 0

Stream: Watch Online @ Movie4u

Last Updated: 2015-11-06 19:29:24 (Update Now)

Torrent added: 2009-09-13 13:36:59




Torrent Files List


Hulk.mp4 (Size: 1.37 GB) (Files: 8)

 Hulk.mp4

1.37 GB

 Hulk.mp4.txt

5.97 KB

 Hulk.sub

63.52 KB

 snapshot20090827134116.jpg

85.30 KB

 snapshot20090827134322.jpg

115.68 KB

 snapshot20090827134410.jpg

79.06 KB

 Torrent downloaded from Demonoid.com.txt

0.05 KB

 tracked_by_h33t_com.txt

0.02 KB
 

tracker

leech seeds
 

Torrent description

General
Complete name : Hulk.mp4
Format : MPEG-4
Format profile : Base Media
Codec ID : isom
File size : 1.37 GiB
Duration : 2h 18mn
Overall bit rate : 1 418 Kbps
Encoded date : UTC 2009-08-26 08:35:28
Tagged date : UTC 2009-08-26 08:35:28

Video
ID : 1
Format : AVC
Format/Info : Advanced Video Codec
Format profile : Main@L4.1
Format settings, CABAC : Yes
Format settings, ReFrames : 3 frames
Codec ID : avc1
Codec ID/Info : Advanced Video Coding
Duration : 2h 18mn
Bit rate mode : Variable
Bit rate : 1 287 Kbps
Maximum bit rate : 6 651 Kbps
Width : 1 280 pixels
Height : 688 pixels
Display aspect ratio : 1.860
Frame rate mode : Constant
Frame rate : 23.976 fps
Resolution : 24 bits
Colorimetry : 4:2:0
Scan type : Progressive
Bits/(Pixel*Frame) : 0.061
Stream size : 1.24 GiB (91%)
Writing library : x264 core 68 r1183M f21daff
Encoding settings : cabac=1 / ref=3 / deblock=1:-1:-1 / analyse=0x1:0 / me=dia / subme=5 / psy_rd=0.0:0.0 / mixed_ref=1 / me_range=16 / chroma_me=1 / trellis=0 / 8x8dct=0 / cqm=0 / deadzone=21,11 / chroma_qp_offset=0 / threads=3 / nr=0 / decimate=1 / mbaff=0 / bframes=3 / b_pyramid=0 / b_adapt=1 / b_bias=0 / direct=3 / wpredb=1 / keyint=250 / keyint_min=25 / scenecut=40 / rc=2pass / bitrate=1287 / ratetol=1.0 / qcomp=0.60 / qpmin=10 / qpmax=51 / qpstep=4 / cplxblur=20.0 / qblur=0.5 / vbv_maxrate=50000 / vbv_bufsize=50000 / ip_ratio=1.40 / pb_ratio=1.30 / aq=0
Encoded date : UTC 2009-08-26 08:35:28
Tagged date : UTC 2009-08-26 08:37:09

Audio
ID : 2
Format : AAC
Format/Info : Advanced Audio Codec
Format version : Version 4
Format profile : LC
Format settings, SBR : No
Codec ID : 40
Duration : 2h 18mn
Bit rate mode : Variable
Bit rate : 128 Kbps
Maximum bit rate : 162 Kbps
Channel(s) : 2 channels
Channel positions : L R
Sampling rate : 48.0 KHz
Resolution : 16 bits
Stream size : 126 MiB (9%)
Encoded date : UTC 2009-08-26 08:37:02
Tagged date : UTC 2009-08-26 08:37:09

related torrents

Torrent name

health leech seeds Size
 

comments (0)

Main Menu