Sci-Fi

Hellboy 2 The Golden Army [2008] 1264x688 HD Mp4 X264 AAC 2 ch 3Li

  • Download 5x Faster
  • Download torrent
  • Direct Download
  • Rate this torrent +  |  -


Torrent info

Name:Hellboy 2 The Golden Army [2008] 1264x688 HD Mp4 X264 AAC 2 ch 3Li

Total Size: 1.44 GB

Magnet: Magnet Link

Seeds: 25

Leechers: 16

Stream: Watch Online @ Movie4u

Last Updated: 0000-00-00 00:00:00 (Update Now)

Torrent added: 2009-09-13 13:36:36



VPN For Torrents

Torrent Files List


Hellboy 2 - The Golden Army.mp4 (Size: 1.44 GB) (Files: 12)

 Hellboy 2 - The Golden Army.mp4

1.44 GB

 Hellboy 2 - The Golden Army.mp4.txt

6.12 KB

 Hellboy 2 - The Golden Army.srt

91.66 KB

 snapshot20090829025213.jpg

97.38 KB

 snapshot20090829025437.jpg

103.82 KB

 snapshot20090829025752.jpg

119.66 KB

 snapshot20090829025807.jpg

105.22 KB

 snapshot20090829030004.jpg

102.09 KB

 snapshot20090829030026.jpg

133.30 KB

 snapshot20090829030238.jpg

123.78 KB

 Torrent downloaded from Demonoid.com.txt

0.05 KB

 tracked_by_h33t_com.txt

0.02 KB
 

Announce URL: http://www.h33t.com:3310/announce

Torrent description

General
Complete name : Hellboy 2 - The Golden Army [2008] HD.Mp4.X264.AAC 2ch\Hellboy 2 - The Golden Army.mp4
Format : MPEG-4
Format profile : Base Media
Codec ID : isom
File size : 1.44 GiB
Duration : 1h 59mn
Overall bit rate : 1 720 Kbps
Encoded date : UTC 2009-08-27 23:27:14
Tagged date : UTC 2009-08-27 23:27:14

Video
ID : 1
Format : AVC
Format/Info : Advanced Video Codec
Format profile : [email protected]
Format settings, CABAC : Yes
Format settings, ReFrames : 3 frames
Codec ID : avc1
Codec ID/Info : Advanced Video Coding
Duration : 1h 59mn
Bit rate mode : Variable
Bit rate : 1 589 Kbps
Maximum bit rate : 8 131 Kbps
Width : 1 264 pixels
Height : 688 pixels
Display aspect ratio : 16:9
Frame rate mode : Constant
Frame rate : 23.976 fps
Resolution : 24 bits
Colorimetry : 4:2:0
Scan type : Progressive
Bits/(Pixel*Frame) : 0.076
Stream size : 1.33 GiB (92%)
Writing library : x264 core 68 r1183M f21daff
Encoding settings : cabac=1 / ref=3 / deblock=1:-1:-1 / analyse=0x1:0 / me=dia / subme=5 / psy_rd=0.0:0.0 / mixed_ref=1 / me_range=16 / chroma_me=1 / trellis=0 / 8x8dct=0 / cqm=0 / deadzone=21,11 / chroma_qp_offset=0 / threads=3 / nr=0 / decimate=1 / mbaff=0 / bframes=2 / b_pyramid=0 / b_adapt=1 / b_bias=0 / direct=1 / wpredb=1 / keyint=250 / keyint_min=25 / scenecut=40 / rc=2pass / bitrate=1589 / ratetol=1.0 / qcomp=0.60 / qpmin=10 / qpmax=51 / qpstep=4 / cplxblur=20.0 / qblur=0.5 / vbv_maxrate=50000 / vbv_bufsize=50000 / ip_ratio=1.40 / pb_ratio=1.30 / aq=0
Encoded date : UTC 2009-08-27 23:27:14
Tagged date : UTC 2009-08-27 23:29:23

Audio
ID : 2
Format : AAC
Format/Info : Advanced Audio Codec
Format version : Version 4
Format profile : LC
Format settings, SBR : No
Codec ID : 40
Duration : 1h 59mn
Bit rate mode : Variable
Bit rate : 128 Kbps
Maximum bit rate : 205 Kbps
Channel(s) : 2 channels
Channel positions : L R
Sampling rate : 48.0 KHz
Resolution : 16 bits
Stream size : 110 MiB (7%)
Encoded date : UTC 2009-08-27 23:29:04
Tagged date : UTC 2009-08-27 23:29:23

related torrents

Torrent name

health leech seeds Size
 


comments (0)

Main Menu