Sci-Fi

Hellboy 1 [2004] 1264x688 HD Mp4 X264 AAC 2 ch 3Li

  • Download 5x Faster
  • Download torrent
  • Direct Download
  • Rate this torrent +  |  -
Hellboy 1 [2004] 1264x688 HD Mp4 X264 AAC 2 ch 3Li

Free and Direct Download with Usenet.nl 300GB+ free


Torrent info

Name:Hellboy 1 [2004] 1264x688 HD Mp4 X264 AAC 2 ch 3Li

Total Size: 1.41 GB

Magnet: Magnet Link

Seeds: 0

Leechers: 0

Stream: Watch Online @ Movie4u

Last Updated: 2016-04-19 12:39:17 (Update Now)

Torrent added: 2009-09-13 13:36:29





Torrent Files List


Hellboy.mp4 (Size: 1.41 GB) (Files: 11)

 Hellboy.mp4

1.41 GB

 Hellboy.mp4.txt

6.07 KB

 Hellboy.srt

65.47 KB

 snapshot20090828183110.jpg

83.94 KB

 snapshot20090828183200.jpg

79.73 KB

 snapshot20090828183338.jpg

84.74 KB

 snapshot20090828183409.jpg

98.01 KB

 snapshot20090828183754.jpg

77.80 KB

 snapshot20090828183944.jpg

96.99 KB

 Torrent downloaded from Demonoid.com.txt

0.05 KB

 tracked_by_h33t_com.txt

0.02 KB
 

tracker

leech seeds
 

Torrent description

General
Complete name : F:\HD Movies 3\Hellboy 1 [2004] 1264x688 HD.Mp4.H264.AAC 2ch\Hellboy.mp4
Format : MPEG-4
Format profile : Base Media
Codec ID : isom
File size : 1.41 GiB
Duration : 2h 12mn
Overall bit rate : 1 520 Kbps
Encoded date : UTC 2009-08-27 15:06:11
Tagged date : UTC 2009-08-27 15:06:11

Video
ID : 1
Format : AVC
Format/Info : Advanced Video Codec
Format profile : [email protected]
Format settings, CABAC : Yes
Format settings, ReFrames : 3 frames
Codec ID : avc1
Codec ID/Info : Advanced Video Coding
Duration : 2h 12mn
Bit rate mode : Variable
Bit rate : 1 385 Kbps
Maximum bit rate : 5 183 Kbps
Width : 1 264 pixels
Height : 688 pixels
Display aspect ratio : 16:9
Frame rate mode : Constant
Frame rate : 23.976 fps
Resolution : 24 bits
Colorimetry : 4:2:0
Scan type : Progressive
Bits/(Pixel*Frame) : 0.066
Stream size : 1.28 GiB (91%)
Writing library : x264 core 65 r999kMod cc51047
Encoding settings : cabac=1 / ref=3 / deblock=1:0:0 / analyse=0x1:0 / me=dia / subme=6 / psy_rd=1.0:0.0 / mixed_ref=1 / me_range=16 / chroma_me=1 / trellis=2 / 8x8dct=0 / cqm=0 / deadzone=21,11 / chroma_qp_offset=-2 / threads=2 / thread_queue=2 / nr=0 / decimate=1 / mbaff=0 / bframes=2 / b_pyramid=1 / b_adapt=1 / b_bias=0 / direct=3 / wpredb=1 / keyint=250 / keyint_min=25 / scenecut=40(pre) / rc=2pass / bitrate=1385 / ratetol=1.0 / qcomp=0.60 / qpmin=10 / qpmax=51 / qpstep=4 / cplxblur=20.0 / qblur=0.5 / ip_ratio=1.40 / pb_ratio=1.30 / aq=1:1.00
Encoded date : UTC 2009-08-27 15:06:11
Tagged date : UTC 2009-08-27 15:07:58

Audio
ID : 2
Format : AAC
Format/Info : Advanced Audio Codec
Format version : Version 4
Format profile : LC
Format settings, SBR : No
Codec ID : 40
Duration : 2h 12mn
Bit rate mode : Variable
Bit rate : 132.3 Kbps
Maximum bit rate : 136 Kbps
Channel(s) : 2 channels
Channel positions : L R
Sampling rate : 48.0 KHz
Resolution : 16 bits
Stream size : 124 MiB (9%)
Encoded date : UTC 2009-08-27 15:07:50
Tagged date : UTC 2009-08-27 15:07:58

related torrents

Torrent name

health leech seeds Size
 

comments (0)

Main Menu