Sci-Fi

Ghost Rider [2007] 1280x528 HD Mp4 H264 AAC 2 ch 3Li

  • Download 5x Faster
  • Download torrent
  • Direct Download
  • Rate this torrent +  |  -
Ghost Rider [2007] 1280x528 HD Mp4 H264 AAC 2 ch 3Li

Anonymous and Free Direct Download


Torrent info

Name:Ghost Rider [2007] 1280x528 HD Mp4 H264 AAC 2 ch 3Li

Total Size: 1.44 GB

Magnet: Magnet Link

Seeds: 0

Leechers: 0

Stream: Watch Online @ Movie4u

Last Updated: 2016-03-24 17:36:37 (Update Now)

Torrent added: 2009-09-13 13:36:08



VPN For Torrents

Torrent Files List


Ghost Rider.mp4 (Size: 1.44 GB) (Files: 10)

 Ghost Rider.mp4

1.44 GB

 Ghost Rider.mp4.txt

6.08 KB

 Ghost Rider.srt

76.50 KB

 snapshot20090830082956.jpg

63.02 KB

 snapshot20090830083130.jpg

103.72 KB

 snapshot20090830083219.jpg

68.69 KB

 snapshot20090830083239.jpg

89.80 KB

 snapshot20090830083542.jpg

83.50 KB

 Torrent downloaded from Demonoid.com.txt

0.05 KB

 tracked_by_h33t_com.txt

0.02 KB
 

tracker

leech seeds
 

Torrent description

General
Complete name : Ghost Rider [2007] BDRip 1280x528 HD.Mp4.H264.AAC 2 ch\Ghost Rider.mp4
Format : MPEG-4
Format profile : Base Media
Codec ID : isom
File size : 1.44 GiB
Duration : 2h 3mn
Overall bit rate : 1 670 Kbps
Encoded date : UTC 2009-08-28 13:27:07
Tagged date : UTC 2009-08-28 13:27:07

Video
ID : 1
Format : AVC
Format/Info : Advanced Video Codec
Format profile : [email protected]
Format settings, CABAC : Yes
Format settings, ReFrames : 3 frames
Codec ID : avc1
Codec ID/Info : Advanced Video Coding
Duration : 2h 3mn
Bit rate mode : Variable
Bit rate : 1 538 Kbps
Maximum bit rate : 6 139 Kbps
Width : 1 280 pixels
Height : 528 pixels
Display aspect ratio : 2.40:1
Frame rate mode : Constant
Frame rate : 23.976 fps
Resolution : 24 bits
Colorimetry : 4:2:0
Scan type : Progressive
Bits/(Pixel*Frame) : 0.095
Stream size : 1.33 GiB (92%)
Writing library : x264 core 68 r1183M f21daff
Encoding settings : cabac=1 / ref=1 / deblock=1:-1:-1 / analyse=0x1:0 / me=hex / subme=2 / psy_rd=0.0:0.0 / mixed_ref=0 / me_range=16 / chroma_me=1 / trellis=0 / 8x8dct=0 / cqm=0 / deadzone=21,11 / chroma_qp_offset=0 / threads=3 / nr=0 / decimate=1 / mbaff=0 / bframes=2 / b_pyramid=1 / b_adapt=1 / b_bias=0 / direct=3 / wpredb=1 / keyint=250 / keyint_min=25 / scenecut=40 / rc=2pass / bitrate=1538 / ratetol=1.0 / qcomp=0.60 / qpmin=10 / qpmax=51 / qpstep=4 / cplxblur=20.0 / qblur=0.5 / vbv_maxrate=50000 / vbv_bufsize=50000 / ip_ratio=1.40 / pb_ratio=1.30 / aq=0
Encoded date : UTC 2009-08-28 13:27:07
Tagged date : UTC 2009-08-28 13:28:49

Audio
ID : 2
Format : AAC
Format/Info : Advanced Audio Codec
Format version : Version 4
Format profile : LC
Format settings, SBR : No
Codec ID : 40
Duration : 2h 3mn
Bit rate mode : Variable
Bit rate : 128 Kbps
Maximum bit rate : 160 Kbps
Channel(s) : 2 channels
Channel positions : L R
Sampling rate : 48.0 KHz
Resolution : 16 bits
Stream size : 113 MiB (8%)
Encoded date : UTC 2009-08-28 13:28:36
Tagged date : UTC 2009-08-28 13:28:49

related torrents

Torrent name

health leech seeds Size
 


comments (0)

Main Menu