UK

Mountain Episode 3 (12th August 2007) [HDTV 1080p (x264)]

  • Download 5x Faster
  • Download torrent
  • Direct Download
  • Rate this torrent +  |  -
Mountain Episode 3 (12th August 2007) [HDTV 1080p (x264)]

Free and Direct Download with Usenet.nl 300GB+ free


Torrent info

Name:Mountain Episode 3 (12th August 2007) [HDTV 1080p (x264)]

Total Size: 6.41 GB

Magnet: Magnet Link

Seeds: 0

Leechers: 0

Stream: Watch Online @ Movie4u

Last Updated: 2013-10-30 23:17:42 (Update Now)

Torrent added: 2009-09-13 13:35:59





Torrent Files List


Mountain.E03.2007.BBC-HD.1080p.H.264.AC3.5.1.mkv (Size: 6.41 GB) (Files: 1)

 Mountain.E03.2007.BBC-HD.1080p.H.264.AC3.5.1.mkv

6.41 GB
 

Announce URL:

Torrent description

This torrent was uploaded from www.TheBox.bz (signup is open and free) - the home of all British TV

3/5. Central Scotland

Mountain   Episode 3 (12th August 2007) [HDTV 1080p (x264)] preview 0



Griff Rhys Jones continues his tour of the mountains of Britain with a journey to the Central Highlands, where he explores Glencoe, the Cairngorm range and Britain's highest mountain, Ben Nevis.

Griff explores ambitious feats of Victorian engineering and finds a stunning example of a Victorian shooting lodge. He also tries his hand at local pursuits including dog sledding and skiing, before joining a group of runners in training for the formidable annual Ben Race.



General
Complete name : D:\Media\Filmek\1. HD Content\BBC HD\Mountain\Mountain.E03.2007.BBC-HD.1080p.H.264.AC3.5.1.mkv
Format : Matroska
File size : 6.41 GiB
Duration : 56mn 6s
Overall bit rate : 16.4 Mbps
Encoded date : UTC 2007-08-30 04:48:46
Writing application : gdsmux
Writing library : Haali DirectShow Matroska Muxer 1.7.189.11

Video
ID : 1
Format : AVC
Format/Info : Advanced Video Codec
Format profile : [email protected]
Format settings, CABAC : Yes
Format settings, ReFrames : 2 frames
Muxing mode : Container [email protected]
Codec ID : V_MPEG4/ISO/AVC
Duration : 56mn 6s
Bit rate : 15.6 Mbps
Width : 1 440 pixels
Height : 1 080 pixels
Display aspect ratio : 16:9
Original display aspect ratio: 16:9
Frame rate : 25.000 fps
Resolution : 24 bits
Colorimetry : 4:2:0
Scan type : MBAFF
Bits/(Pixel*Frame) : 0.402
Stream size : 6.13 GiB (96%)
Title : BBC-HD H.264 1440x1080
Language : English

Audio
ID : 2
Format : AC-3
Format/Info : Audio Coding 3
Codec ID : A_AC3
Duration : 56mn 6s
Bit rate mode : Constant
Bit rate : 384 Kbps
Channel(s) : 6 channels
Channel positions : Front: L C R, Surround: L R, LFE
Sampling rate : 48.0 KHz
Video delay : -5ms
Stream size : 154 MiB (2%)
Title : English AC3 5.1
Language : English

===============================

Some of the other rather spiffing shows available now and always if you signup free @ www.TheBox.bz:

Comedy: The Office, Peep Show, Coupling, Chef, Fawlty Towers, Only Fools and Horses, The IT Crowd, Brass Eye, Nathan Barley, Young Ones, Monty Python, Blackadder, Alan Partridge, Father Ted, Coupling, Little Britain, Mr Bean, Extras, Green Wing, Mighty Boosh

Drama: Casualty, Holby City, The Bill, Hustle, Skins, Shameless, Ashes To Ashes

Entertainment: Faking It, Derren Brown, Scrapheap Challenge, Strictly Come Dancing, Wife Swap

Game/Quiz Shows: Whose Line Is It Anyway?, Have I Got News For You, Deal Or No Deal (UK), Q.I.

Education/Documentary: Planet Earth, Horizon, Panorama, Mark Thomas (Comedy) Product

Food: Hell's Kitchen, Jamie Oliver, The F Word, Kitchen Nightmares, Masterchef, Great British Menu, Gordon Ramsay's Cookalong

Home/Property/Garden: Property Ladder, How Clean Is Your House?, Changing Rooms, Grand Designs, Homes Under The Hammer, To Buy Or Not To Buy

Motoring: Top Gear, Fifth Gear

Music: Top Of The Pops, Jools Holland, Glastonbury

Reality: Big Brother, Celebrity Big Brother, I'm a Celebrity - Get Me Out of Here!, Any Dream Will Do, Grease, Pop Idol, Wife Swap, X Factor, Badger Or Bust, Apprentice UK, Dragons' Den, Britain's Got Talent

Sci-Fi: Doctor Who, Red Dwarf, Torchwood, Primeval

Sport: Football (Soccer), Cricket, Rugby, Snooker, Darts, Formula One (F1GP)

Soaps: Eastenders, Coronation Street, Emmerdale, Neighbours, Hollyoaks

Style/Fashion: What Not To Wear, Project Catwalk

Kids: Teletubbies, Blue Peter, Tikkabilla, Andy Pandy, Postman Pat, Shoebox Zoo, Brum, Bob The Builder, Young Dracula, Sarah Jane Adventures, Shaun The Sheep

related torrents

Torrent name

health leech seeds Size
 

comments (0)

Main Menu