Action

Face Off [1997] 1280x528 HD Mp4 X264 AAC 5 1 ch 3Li

  • Download 5x Faster
  • Download torrent
  • Direct Download
  • Rate this torrent +  |  -
Face Off [1997] 1280x528 HD Mp4 X264 AAC 5 1 ch 3Li

Free and Direct Download with Usenet 300GB+ free


Torrent info

Name:Face Off [1997] 1280x528 HD Mp4 X264 AAC 5 1 ch 3Li

Total Size: 1.43 GB

Magnet: Magnet Link

Seeds: 0

Leechers: 0

Stream: Watch Online @ Movie4u

Last Updated: 2015-08-07 01:30:58 (Update Now)

Torrent added: 2009-09-13 13:35:36




Torrent Files List


Face Off.mp4 (Size: 1.43 GB) (Files: 11)

 Face Off.mp4

1.43 GB

 Face Off.mp4.txt

4.55 KB

 snapshot20090909103906.jpg

68.63 KB

 snapshot20090909103941.jpg

57.83 KB

 snapshot20090909104021.jpg

63.30 KB

 snapshot20090909104059.jpg

108.61 KB

 snapshot20090909104108.jpg

59.80 KB

 snapshot20090909104117.jpg

59.33 KB

 snapshot20090909104130.jpg

61.37 KB

 Torrent downloaded from Demonoid.com.txt

0.05 KB

 tracked_by_h33t_com.txt

0.02 KB
 

tracker

leech seeds
 

Torrent description

General
Complete name : Face Off.mp4
Format : MPEG-4
Format profile : Base Media
Codec ID : isom
File size : 1.43 GiB
Duration : 2h 19mn
Overall bit rate : 1 477 Kbps

Video
ID : 1
Format : AVC
Format/Info : Advanced Video Codec
Format profile : [email protected]
Format settings, CABAC : Yes
Format settings, ReFrames : 3 frames
Codec ID : avc1
Codec ID/Info : Advanced Video Coding
Duration : 2h 19mn
Bit rate mode : Variable
Bit rate : 1 283 Kbps
Nominal bit rate : 1 298 Kbps
Maximum bit rate : 16.9 Mbps
Width : 1 280 pixels
Height : 528 pixels
Display aspect ratio : 2.40:1
Frame rate mode : Constant
Frame rate : 23.976 fps
Resolution : 24 bits
Colorimetry : 4:2:0
Scan type : Progressive
Bits/(Pixel*Frame) : 0.079
Stream size : 1.25 GiB (87%)
Title : Face Off By ELi
Writing library : x264 core 68 r1183M f21daff

Audio
ID : 2
Format : AAC
Format/Info : Advanced Audio Codec
Format version : Version 4
Format profile : LC
Format settings, SBR : No
Codec ID : 40
Duration : 2h 18mn
Bit rate mode : Variable
Bit rate : 192 Kbps
Maximum bit rate : 256 Kbps
Channel(s) : 6 channels
Channel positions : Front: L C R, Rear: L R, LFE
Sampling rate : 48.0 KHz
Resolution : 16 bits
Stream size : 189 MiB (13%)
Title : Face Off
Language : English

related torrents

Torrent name

health leech seeds Size
 

comments (0)

Main Menu