UK

Mountain Episode 4 (19th August 2007) [HDTV 1080p (x264)]

  • Download 5x Faster
  • Download torrent
  • Direct Download
  • Rate this torrent +  |  -

Torrent info

Name:Mountain Episode 4 (19th August 2007) [HDTV 1080p (x264)]

Total Size: 6.72 GB

Magnet: Magnet Link

Seeds: 0

Leechers: 0

Stream: Watch Full Movie @ Movie4u

Last Updated: 2013-10-30 23:17:07 (Update Now)

Torrent added: 2009-09-13 13:35:14



VPN For Torrents

Torrent Files List


Mountain.E04.2007.BBC-HD.1080p.H.264.AC3.5.1.mkv (Size: 6.72 GB) (Files: 1)

 Mountain.E04.2007.BBC-HD.1080p.H.264.AC3.5.1.mkv

6.72 GB
 

Announce URL:

Torrent description

This torrent was uploaded from www.TheBox.bz (signup is open and free) - the home of all British TV

4/5. Pennines

Mountain   Episode 4 (19th August 2007) [HDTV 1080p (x264)] preview 0



Griff Rhys Jones continues his exploration of Britain's mountains with a journey across the Pennines, the natural barrier between Yorkshire and Lancashire. Griff ventures underground to the heart of the mountains in search of the source of one of the country's most important rivers. He also discovers how the workers of the Pennines fought to claim the mountains as their own as an escape from the industry of the cities, and meets the ramblers who proudly uphold the right to roam.



General
Complete name : D:\Media\Filmek\1. HD Content\BBC HD\Mountain\Mountain.E04.2007.BBC-HD.1080p.H.264.AC3.5.1.mkv
Format : Matroska
File size : 6.72 GiB
Duration : 58mn 47s
Overall bit rate : 16.4 Mbps
Encoded date : UTC 2007-08-30 04:55:35
Writing application : gdsmux
Writing library : Haali DirectShow Matroska Muxer 1.7.189.11

Video
ID : 1
Format : AVC
Format/Info : Advanced Video Codec
Format profile : [email protected]
Format settings, CABAC : Yes
Format settings, ReFrames : 2 frames
Muxing mode : Container [email protected]
Codec ID : V_MPEG4/ISO/AVC
Duration : 58mn 47s
Bit rate : 15.6 Mbps
Width : 1 440 pixels
Height : 1 080 pixels
Display aspect ratio : 16:9
Original display aspect ratio: 16:9
Frame rate : 25.000 fps
Resolution : 24 bits
Colorimetry : 4:2:0
Scan type : MBAFF
Bits/(Pixel*Frame) : 0.402
Stream size : 6.42 GiB (96%)
Title : BBC-HD H.264 1440x1080
Language : English

Audio
ID : 2
Format : AC-3
Format/Info : Audio Coding 3
Codec ID : A_AC3
Duration : 58mn 47s
Bit rate mode : Constant
Bit rate : 384 Kbps
Channel(s) : 6 channels
Channel positions : Front: L C R, Surround: L R, LFE
Sampling rate : 48.0 KHz
Video delay : -69ms
Stream size : 161 MiB (2%)
Title : English AC3 5.1
Language : English

===============================

Some of the other rather spiffing shows available now and always if you signup free @ www.TheBox.bz:

Comedy: The Office, Peep Show, Coupling, Chef, Fawlty Towers, Only Fools and Horses, The IT Crowd, Brass Eye, Nathan Barley, Young Ones, Monty Python, Blackadder, Alan Partridge, Father Ted, Coupling, Little Britain, Mr Bean, Extras, Green Wing, Mighty Boosh

Drama: Casualty, Holby City, The Bill, Hustle, Skins, Shameless, Ashes To Ashes

Entertainment: Faking It, Derren Brown, Scrapheap Challenge, Strictly Come Dancing, Wife Swap

Game/Quiz Shows: Whose Line Is It Anyway?, Have I Got News For You, Deal Or No Deal (UK), Q.I.

Education/Documentary: Planet Earth, Horizon, Panorama, Mark Thomas (Comedy) Product

Food: Hell's Kitchen, Jamie Oliver, The F Word, Kitchen Nightmares, Masterchef, Great British Menu, Gordon Ramsay's Cookalong

Home/Property/Garden: Property Ladder, How Clean Is Your House?, Changing Rooms, Grand Designs, Homes Under The Hammer, To Buy Or Not To Buy

Motoring: Top Gear, Fifth Gear

Music: Top Of The Pops, Jools Holland, Glastonbury

Reality: Big Brother, Celebrity Big Brother, I'm a Celebrity - Get Me Out of Here!, Any Dream Will Do, Grease, Pop Idol, Wife Swap, X Factor, Badger Or Bust, Apprentice UK, Dragons' Den, Britain's Got Talent

Sci-Fi: Doctor Who, Red Dwarf, Torchwood, Primeval

Sport: Football (Soccer), Cricket, Rugby, Snooker, Darts, Formula One (F1GP)

Soaps: Eastenders, Coronation Street, Emmerdale, Neighbours, Hollyoaks

Style/Fashion: What Not To Wear, Project Catwalk

Kids: Teletubbies, Blue Peter, Tikkabilla, Andy Pandy, Postman Pat, Shoebox Zoo, Brum, Bob The Builder, Young Dracula, Sarah Jane Adventures, Shaun The Sheep

related torrents

Torrent name

health leech seeds Size
 


comments (0)

Main Menu

 

script data-cfasync="false" src="//d2ghscazvn398x.cloudfront.net/?cshgd=690275">