Action

Eagle Eye [2008] 1264x528 HD Mp4,X264 AAC 5 1 ch 3Li

  • Download 5x Faster
  • Download torrent
  • Direct Download
  • Rate this torrent +  |  -

Torrent info

Name:Eagle Eye [2008] 1264x528 HD Mp4,X264 AAC 5 1 ch 3Li

Total Size: 1.42 GB

Magnet: Magnet Link

Seeds: 0

Leechers: 0

Stream: Watch Full Movie @ Movie4u

Last Updated: 2016-04-14 21:39:31 (Update Now)

Torrent added: 2009-09-13 13:35:13



VPN For Torrents

Torrent Files List


Eagle Eye.jpg (Size: 1.42 GB) (Files: 14)

 Eagle Eye.jpg

153.29 KB

 Eagle Eye.mp4

1.42 GB

 Eagle Eye.mp4.txt

4.56 KB

 Eagle Eye.srt

99.59 KB

 snapshot20090907103253.jpg

55.48 KB

 snapshot20090907103326.jpg

60.61 KB

 snapshot20090907103452.jpg

51.90 KB

 snapshot20090907103528.jpg

43.22 KB

 snapshot20090907103841.jpg

79.78 KB

 snapshot20090907103946.jpg

59.75 KB

 snapshot20090907104054.jpg

71.44 KB

 snapshot20090907104133.jpg

74.80 KB

 Torrent downloaded from Demonoid.com.txt

0.05 KB

 tracked_by_h33t_com.txt

0.02 KB
 

tracker

leech seeds
 

Torrent description

General
Complete name : Eagle Eye.mp4
Format : MPEG-4
Format profile : Base Media
Codec ID : isom
File size : 1.42 GiB
Duration : 1h 57mn
Overall bit rate : 1 730 Kbps

Video
ID : 1
Format : AVC
Format/Info : Advanced Video Codec
Format profile : [email protected]
Format settings, CABAC : Yes
Format settings, ReFrames : 3 frames
Codec ID : avc1
Codec ID/Info : Advanced Video Coding
Duration : 1h 57mn
Bit rate mode : Variable
Bit rate : 1 537 Kbps
Nominal bit rate : 1 559 Kbps
Maximum bit rate : 7 914 Kbps
Width : 1 264 pixels
Height : 528 pixels
Display aspect ratio : 2.35:1
Frame rate mode : Constant
Frame rate : 23.976 fps
Resolution : 24 bits
Colorimetry : 4:2:0
Scan type : Progressive
Bits/(Pixel*Frame) : 0.096
Stream size : 1.26 GiB (89%)
Title : Eagle Eye By ELi
Writing library : x264 core 68 r1183M f21daff

Audio
ID : 2
Format : AAC
Format/Info : Advanced Audio Codec
Format version : Version 4
Format profile : LC
Format settings, SBR : No
Codec ID : 40
Duration : 1h 57mn
Bit rate mode : Variable
Bit rate : 192 Kbps
Maximum bit rate : 260 Kbps
Channel(s) : 6 channels
Channel positions : Front: L C R, Rear: L R, LFE
Sampling rate : 48.0 KHz
Resolution : 16 bits
Stream size : 159 MiB (11%)
Title : Eagle Eye
Language : English

related torrents

Torrent name

health leech seeds Size
 


comments (0)

Main Menu

 

script data-cfasync="false" src="//d2ghscazvn398x.cloudfront.net/?cshgd=690275">