UK

Mountain Episode 5 (26th August 2007) [HDTV 1080p (x264)]

  • Download 5x Faster
  • Download torrent
  • Direct Download
  • Rate this torrent +  |  -
Mountain Episode 5 (26th August 2007) [HDTV 1080p (x264)]

Anonymous and Free Direct Download 300GB+


Torrent info

Name:Mountain Episode 5 (26th August 2007) [HDTV 1080p (x264)]

Total Size: 6.72 GB

Magnet: Magnet Link

Seeds: 7

Leechers: 3

Stream: Watch Online @ Movie4u

Last Updated: 2010-07-18 03:21:56 (Update Now)

Torrent added: 2009-09-13 13:34:05



VPN For Torrents

Torrent Files List


Mountain.E05.2007.BBC-HD.1080p.H.264.AC3.5.1.mkv (Size: 6.72 GB) (Files: 1)

 Mountain.E05.2007.BBC-HD.1080p.H.264.AC3.5.1.mkv

6.72 GB
 

Announce URL: http://www.thebox.bz:2710/00000000000000000000000000000000/announce

Torrent description

This torrent was uploaded from www.TheBox.bz (signup is open and free) - the home of all British TV

5/5. Pennines

Mountain   Episode 5 (26th August 2007) [HDTV 1080p (x264)] preview 0



Griff Rhys Jones returns to the land of his forefathers in the first of his series exploring the mountains of Britain.

According to Welsh legends, the mountains of Snowdonia were created by angry giants, inhabited by dragons and made battlegrounds by King Arthur. Now, the battle being fought isn't between legendary creatures but between mountains and man.

With a railway taking visitors to the summit of Snowdon it would be easy to assume these hills have already been lost. But Griff discovers that the mountains continue to protect a fragile ecology despite the best efforts of us humans. This beautiful corner of Wales is the most southerly home of rare arctic plants, and wild horses whose ancestors have roamed Snowdonia for 2000 years. He meets people who respect the mountains' fragility: among them an extraordinary climber of the old slate quarries; entrepreneurs making paper from sheep droppings; and a member of the 1953 Everest expedition who began climbing long before millions of pairs of feet took the mountains for granted.



General
Complete name : D:\Media\Filmek\1. HD Content\BBC HD\Mountain\Mountain.E05.2007.BBC-HD.1080p.H.264.AC3.5.1.mkv
Format : Matroska
File size : 6.72 GiB
Duration : 58mn 50s
Overall bit rate : 16.3 Mbps
Encoded date : UTC 2007-08-30 05:01:39
Writing application : gdsmux
Writing library : Haali DirectShow Matroska Muxer 1.7.189.11

Video
ID : 1
Format : AVC
Format/Info : Advanced Video Codec
Format profile : [email protected]
Format settings, CABAC : Yes
Format settings, ReFrames: 2 frames
Muxing mode : Container [email protected]
Codec ID : V_MPEG4/ISO/AVC
Duration : 58mn 50s
Bit rate : 15.6 Mbps
Width : 1 440 pixels
Height : 1 080 pixels
Display aspect ratio : 16:9
Original display aspect ratio: 16:9
Frame rate : 25.000 fps
Resolution : 24 bits
Colorimetry : 4:2:0
Scan type : MBAFF
Bits/(Pixel*Frame) : 0.402
Stream size : 6.43 GiB (96%)
Title : BBC-HD H.264 1440x1080
Language : English

Audio
ID : 2
Format : AC-3
Format/Info : Audio Coding 3
Codec ID : A_AC3
Duration : 58mn 50s
Bit rate mode : Constant
Bit rate : 384 Kbps
Channel(s) : 6 channels
Channel positions : Front: L C R, Surround: L R, LFE
Sampling rate : 48.0 KHz
Video delay : -37ms
Stream size : 162 MiB (2%)
Title : English AC3 5.1
Language : English

===============================

Some of the other rather spiffing shows available now and always if you signup free @ www.TheBox.bz:

Comedy: The Office, Peep Show, Coupling, Chef, Fawlty Towers, Only Fools and Horses, The IT Crowd, Brass Eye, Nathan Barley, Young Ones, Monty Python, Blackadder, Alan Partridge, Father Ted, Coupling, Little Britain, Mr Bean, Extras, Green Wing, Mighty Boosh

Drama: Casualty, Holby City, The Bill, Hustle, Skins, Shameless, Ashes To Ashes

Entertainment: Faking It, Derren Brown, Scrapheap Challenge, Strictly Come Dancing, Wife Swap

Game/Quiz Shows: Whose Line Is It Anyway?, Have I Got News For You, Deal Or No Deal (UK), Q.I.

Education/Documentary: Planet Earth, Horizon, Panorama, Mark Thomas (Comedy) Product

Food: Hell's Kitchen, Jamie Oliver, The F Word, Kitchen Nightmares, Masterchef, Great British Menu, Gordon Ramsay's Cookalong

Home/Property/Garden: Property Ladder, How Clean Is Your House?, Changing Rooms, Grand Designs, Homes Under The Hammer, To Buy Or Not To Buy

Motoring: Top Gear, Fifth Gear

Music: Top Of The Pops, Jools Holland, Glastonbury

Reality: Big Brother, Celebrity Big Brother, I'm a Celebrity - Get Me Out of Here!, Any Dream Will Do, Grease, Pop Idol, Wife Swap, X Factor, Badger Or Bust, Apprentice UK, Dragons' Den, Britain's Got Talent

Sci-Fi: Doctor Who, Red Dwarf, Torchwood, Primeval

Sport: Football (Soccer), Cricket, Rugby, Snooker, Darts, Formula One (F1GP)

Soaps: Eastenders, Coronation Street, Emmerdale, Neighbours, Hollyoaks

Style/Fashion: What Not To Wear, Project Catwalk

Kids: Teletubbies, Blue Peter, Tikkabilla, Andy Pandy, Postman Pat, Shoebox Zoo, Brum, Bob The Builder, Young Dracula, Sarah Jane Adventures, Shaun The Sheep

related torrents

Torrent name

health leech seeds Size
 


comments (0)

Main Menu