Action

Death Race [2008] 1280x544 HD Mp4 H264 AAC 2 ch 3Li

  • Download 5x Faster
  • Download torrent
  • Direct Download
  • Rate this torrent +  |  -
Death Race [2008] 1280x544 HD Mp4 H264 AAC 2 ch 3Li

Anonymous and Direct Download 300GB+ free


Torrent info

Name:Death Race [2008] 1280x544 HD Mp4 H264 AAC 2 ch 3Li

Total Size: 1.38 GB

Magnet: Magnet Link

Seeds: 0

Leechers: 0

Stream: Watch Online @ Movie4u

Last Updated: 2015-08-26 10:01:36 (Update Now)

Torrent added: 2009-09-13 13:33:55




Torrent Files List


Death Race.mp4 (Size: 1.38 GB) (Files: 14)

 Death Race.mp4

1.38 GB

 Death Race.mp4.txt

4.49 KB

 Death Race.srt

63.67 KB

 snapshot20090831012339.jpg

113.46 KB

 snapshot20090831012449.jpg

90.76 KB

 snapshot20090831012648.jpg

65.07 KB

 snapshot20090831012830.jpg

84.16 KB

 snapshot20090831013021.jpg

64.88 KB

 snapshot20090831013102.jpg

94.24 KB

 snapshot20090831013152.jpg

59.99 KB

 snapshot20090831013212.jpg

72.45 KB

 snapshot20090831013425.jpg

104.72 KB

 Torrent downloaded from Demonoid.com.txt

0.05 KB

 tracked_by_h33t_com.txt

0.02 KB
 

Announce URL:

Torrent description




General
Complete name : Original name - Death Race [2008] mkv.nHD 960X560
Actual : Death Race.mp4
Format : MPEG-4
Format profile : Base Media
Codec ID : isom
File size : 1.38 GiB
Duration : 1h 50mn
Overall bit rate : 1 791 Kbps

Video
ID : 1
Format : AVC
Format/Info : Advanced Video Codec
Format profile : [email protected]
Format settings, CABAC : Yes
Format settings, ReFrames : 2 frames
Codec ID : avc1
Codec ID/Info : Advanced Video Coding
Duration : 1h 50mn
Bit rate mode : Variable
Bit rate : 1 660 Kbps
Nominal bit rate : 1 682 Kbps
Maximum bit rate : 7 218 Kbps
Width : 1 280 pixels
Height : 544 pixels
Display aspect ratio : 2.35:1
Frame rate mode : Constant
Frame rate : 23.976 fps
Resolution : 24 bits
Colorimetry : 4:2:0
Scan type : Progressive
Bits/(Pixel*Frame) : 0.099
Stream size : 1.28 GiB (93%)
Writing library : x264 core 68 r1183M f21daff

Audio
ID : 2
Format : AAC
Format/Info : Advanced Audio Codec
Format version : Version 4
Format profile : LC
Format settings, SBR : No
Codec ID : 40
Duration : 1h 50mn
Bit rate mode : Variable
Bit rate : 128 Kbps
Maximum bit rate : 175 Kbps
Channel(s) : 2 channels
Channel positions : L R
Sampling rate : 48.0 KHz
Resolution : 16 bits
Stream size : 101 MiB (7%)
Language : English

related torrents

Torrent name

health leech seeds Size
 


comments (0)

Main Menu