Action

Casino Royale [2006] 1280x544 HD Mp4 X264 AAC 5 1 ch 3Li

  • Download 5x Faster
  • Download torrent
  • Direct Download
  • Rate this torrent +  |  -
Casino Royale [2006] 1280x544 HD Mp4 X264 AAC 5 1 ch 3Li

Anonymous and Free Direct Download 300GB+


Torrent info

Name:Casino Royale [2006] 1280x544 HD Mp4 X264 AAC 5 1 ch 3Li

Total Size: 1.43 GB

Magnet: Magnet Link

Seeds: 0

Leechers: 0

Stream: Watch Online @ Movie4u

Last Updated: 2014-09-06 13:57:07 (Update Now)

Torrent added: 2009-09-13 12:37:39



VPN For Torrents

Torrent Files List


Casino Royale.mp4 (Size: 1.43 GB) (Files: 13)

 Casino Royale.mp4

1.43 GB

 Casino Royale.mp4.txt

4.58 KB

 Casino Royale.srt

77.05 KB

 snapshot20090906022748.jpg

63.21 KB

 snapshot20090906022859.jpg

63.57 KB

 snapshot20090906023026.jpg

73.58 KB

 snapshot20090906023041.jpg

61.98 KB

 snapshot20090906023058.jpg

77.39 KB

 snapshot20090906023119.jpg

60.40 KB

 snapshot20090906023256.jpg

121.95 KB

 snapshot20090906023422.jpg

78.67 KB

 Torrent downloaded from Demonoid.com.txt

0.05 KB

 tracked_by_h33t_com.txt

0.02 KB
 

Announce URL:

Torrent description

General
Complete name : Casino Royale.mp4
Format : MPEG-4
Format profile : Base Media
Codec ID : isom
File size : 1.43 GiB
Duration : 2h 24mn
Overall bit rate : 1 418 Kbps

Video
ID : 1
Format : AVC
Format/Info : Advanced Video Codec
Format profile : [email protected]
Format settings, CABAC : Yes
Format settings, ReFrames : 3 frames
Codec ID : avc1
Codec ID/Info : Advanced Video Coding
Duration : 2h 24mn
Bit rate mode : Variable
Bit rate : 1 224 Kbps
Nominal bit rate : 1 235 Kbps
Maximum bit rate : 5 513 Kbps
Width : 1 280 pixels
Height : 544 pixels
Display aspect ratio : 2.35:1
Frame rate mode : Constant
Frame rate : 23.976 fps
Resolution : 24 bits
Colorimetry : 4:2:0
Scan type : Progressive
Bits/(Pixel*Frame) : 0.073
Stream size : 1.23 GiB (86%)
Title : Casino Royale By ELi
Writing library : x264 core 68 r1183M f21daff

Audio
ID : 2
Format : AAC
Format/Info : Advanced Audio Codec
Format version : Version 4
Format profile : LC
Format settings, SBR : No
Codec ID : 40
Duration : 2h 24mn
Bit rate mode : Variable
Bit rate : 192 Kbps
Maximum bit rate : 289 Kbps
Channel(s) : 6 channels
Channel positions : Front: L C R, Rear: L R, LFE
Sampling rate : 48.0 KHz
Resolution : 16 bits
Stream size : 196 MiB (13%)
Title : Casino Royale
Language : English

related torrents

Torrent name

health leech seeds Size
 


comments (0)

Main Menu