Comics

Shrek The Halls [2007] 1264x700 HD Mp4 H264 AAC 5 1 ch 3Li

  • Download 5x Faster
  • Download torrent
  • Direct Download
  • Rate this torrent +  |  -
Shrek The Halls [2007] 1264x700 HD Mp4 H264 AAC 5 1 ch 3Li

Free and Direct Download with Usenet 300GB+ free


Torrent info

Name:Shrek The Halls [2007] 1264x700 HD Mp4 H264 AAC 5 1 ch 3Li

Total Size: 261.22 MB

Magnet: Magnet Link

Seeds: 0

Leechers: 4

Stream: Watch Online @ Movie4u

Last Updated: 2017-02-13 11:53:23 (Update Now)

Torrent added: 2009-09-13 12:37:03




Torrent Files List


Shrek The Halls.mp4 (Size: 261.22 MB) (Files: 12)

 Shrek The Halls.mp4

260.14 MB

 Shrek The Halls.mp4.txt

7.28 KB

 Shrek The Halls.srt.srt

28.61 KB

 snapshot20090911200902.jpg

142.72 KB

 snapshot20090911201042.jpg

211.40 KB

 snapshot20090911201118.jpg

159.15 KB

 snapshot20090911201211.jpg

170.17 KB

 snapshot20090911201227.jpg

139.63 KB

 snapshot20090911201334.jpg

115.51 KB

 snapshot20090911201902.jpg

138.39 KB

 Torrent downloaded from Demonoid.com.txt

0.05 KB

 tracked_by_h33t_com.txt

0.02 KB
 

tracker

leech seeds
 

Torrent description

General
Complete name : Shrek The Halls.mp4
Format : MPEG-4
Format profile : Base Media
Codec ID : isom
File size : 260 MiB
Duration : 21mn 15s
Overall bit rate : 1 711 Kbps
Encoded date : UTC 2009-09-10 16:55:53
Tagged date : UTC 2009-09-10 16:55:53

Video
ID : 1
Format : AVC
Format/Info : Advanced Video Codec
Format profile : [email protected]
Format settings, CABAC : Yes
Format settings, ReFrames : 3 frames
Codec ID : avc1
Codec ID/Info : Advanced Video Coding
Duration : 21mn 15s
Bit rate mode : Variable
Bit rate : 1 515 Kbps
Maximum bit rate : 3 779 Kbps
Width : 1 264 pixels
Height : 700 pixels
Display aspect ratio : 16:9
Frame rate mode : Constant
Frame rate : 30.303 fps
Resolution : 24 bits
Colorimetry : 4:2:0
Scan type : Progressive
Bits/(Pixel*Frame) : 0.057
Stream size : 230 MiB (89%)
Title : Shrek The Halls By 3Li
Writing library : x264 core 68 r1183M f21daff
Encoding settings : cabac=1 / ref=3 / deblock=1:0:0 / analyse=0x1:0 / me=dia / subme=5 / psy_rd=0.0:0.0 / mixed_ref=1 / me_range=16 / chroma_me=1 / trellis=1 / 8x8dct=0 / cqm=0 / deadzone=21,11 / chroma_qp_offset=0 / threads=3 / nr=0 / decimate=1 / mbaff=0 / bframes=2 / b_pyramid=1 / b_adapt=1 / b_bias=0 / direct=2 / wpredb=0 / keyint=250 / keyint_min=25 / scenecut=40 / rc=2pass / bitrate=1515 / ratetol=1.0 / qcomp=0.60 / qpmin=10 / qpmax=51 / qpstep=4 / cplxblur=20.0 / qblur=0.5 / ip_ratio=1.40 / pb_ratio=1.30 / aq=1:1.00 / cabac=1 / ref=3 / deblock=1:0:0 / analyse=0x1:0 / me=dia / subme=5 / psy_rd=0.0:0.0 / mixed_ref=1 / me_range=16 / chroma_me=1 / trellis=1 / 8x8dct=0 / cqm=0 / deadzone=21,11 / chroma_qp_offset=0 / threads=3 / nr=0 / decimate=1 / mbaff=0 / bframes=2 / b_pyramid=1 / b_adapt=1 / b_bias=0 / direct=2 / wpredb=0 / keyint=250 / keyint_min=25 / scenecut=40 / rc=2pass / bitrate=1515 / ratetol=1.0 / qcomp=0.60 / qpmin=10 / qpmax=51 / qpstep=4 / cplxblur=20.0 / qblur=0.5 / ip_ratio=1.40 / pb_ratio=1.30 / aq=1:1.00
Encoded date : UTC 2009-09-10 15:32:32
Tagged date : UTC 2009-09-10 16:56:07

Audio
ID : 2
Format : AAC
Format/Info : Advanced Audio Codec
Format version : Version 4
Format profile : LC
Format settings, SBR : No
Codec ID : 40
Duration : 21mn 15s
Bit rate mode : Variable
Bit rate : 192 Kbps
Maximum bit rate : 200 Kbps
Channel(s) : 6 channels
Channel positions : Front: L C R, Rear: L R, LFE
Sampling rate : 48.0 KHz
Resolution : 16 bits
Stream size : 29.1 MiB (11%)
Title : Shrek The Halls By 3Li
Language : English
Encoded date : UTC 2009-09-10 16:56:06
Tagged date : UTC 2009-09-10 16:56:07

related torrents

Torrent name

health leech seeds Size
 

comments (0)

Main Menu