Comics

Shrek The Third [2007] 1264x704 HD Mp4 H264 AAC 5 1 ch 3Li

  • Download 5x Faster
  • Download torrent
  • Direct Download
  • Rate this torrent +  |  -
Shrek The Third [2007] 1264x704 HD Mp4 H264 AAC 5 1 ch 3Li

Free and Direct Download with Usenet 300GB+ free


Torrent info

Name:Shrek The Third [2007] 1264x704 HD Mp4 H264 AAC 5 1 ch 3Li

Total Size: 1.36 GB

Magnet: Magnet Link

Seeds: 0

Leechers: 1

Stream: Watch Online @ Movie4u

Last Updated: 2016-11-08 04:03:43 (Update Now)

Torrent added: 2009-09-13 12:36:30




Torrent Files List


Shrek The Third.mp4 (Size: 1.36 GB) (Files: 10)

 Shrek The Third.mp4

1.36 GB

 Shrek The Third.mp4.txt

6.06 KB

 snapshot20090913124610.jpg

135.61 KB

 snapshot20090913124621.jpg

150.68 KB

 snapshot20090913124649.jpg

135.59 KB

 snapshot20090913124854.jpg

124.68 KB

 snapshot20090913125124.jpg

134.37 KB

 snapshot20090913125235.jpg

105.17 KB

 Torrent downloaded from Demonoid.com.txt

0.05 KB

 tracked_by_h33t_com.txt

0.02 KB
 

tracker

leech seeds
 

Torrent description

General
Complete name : Shrek The Third.mp4
Format : MPEG-4
Format profile : Base Media
Codec ID : isom
File size : 1.36 GiB
Duration : 1h 32mn
Overall bit rate : 2 101 Kbps
Encoded date : UTC 2009-09-12 08:26:15
Tagged date : UTC 2009-09-12 08:26:15
Writing application : Yamb 2.1.0.0 [http://yamb.unite-video.com]

Video
ID : 1
Format : AVC
Format/Info : Advanced Video Codec
Format profile : [email protected]
Format settings, CABAC : Yes
Format settings, ReFrames : 3 frames
Codec ID : avc1
Codec ID/Info : Advanced Video Coding
Duration : 1h 32mn
Bit rate mode : Variable
Bit rate : 1 915 Kbps
Maximum bit rate : 9 854 Kbps
Width : 1 264 pixels
Height : 704 pixels
Display aspect ratio : 16:9
Frame rate mode : Constant
Frame rate : 23.976 fps
Resolution : 24 bits
Colorimetry : 4:2:0
Scan type : Progressive
Bits/(Pixel*Frame) : 0.090
Stream size : 1.24 GiB (91%)
Writing library : x264 core 68 r1183M f21daff
Encoding settings : cabac=1 / ref=3 / deblock=1:0:0 / analyse=0x1:0 / me=dia / subme=5 / psy_rd=0.0:0.0 / mixed_ref=1 / me_range=16 / chroma_me=1 / trellis=1 / 8x8dct=0 / cqm=0 / deadzone=21,11 / chroma_qp_offset=0 / threads=3 / nr=0 / decimate=1 / mbaff=0 / bframes=2 / b_pyramid=1 / b_adapt=1 / b_bias=0 / direct=2 / wpredb=0 / keyint=250 / keyint_min=25 / scenecut=40 / rc=abr / bitrate=1915 / ratetol=1.0 / qcomp=0.60 / qpmin=10 / qpmax=51 / qpstep=4 / ip_ratio=1.40 / pb_ratio=1.30 / aq=1:1.00
Encoded date : UTC 2009-09-12 01:01:22
Tagged date : UTC 2009-09-12 08:27:52

Audio
ID : 2
Format : AAC
Format/Info : Advanced Audio Codec
Format version : Version 4
Format profile : LC
Format settings, SBR : No
Codec ID : 40
Duration : 1h 32mn
Bit rate mode : Variable
Bit rate : 188 Kbps
Maximum bit rate : 331 Kbps
Channel(s) : 6 channels
Channel positions : Front: L C R, Rear: L R, LFE
Sampling rate : 48.0 KHz
Resolution : 16 bits
Stream size : 125 MiB (9%)
Encoded date : UTC 2009-09-12 08:27:23
Tagged date : UTC 2009-09-12 08:27:52

related torrents

Torrent name

health leech seeds Size
 

comments (0)

Main Menu