Music Videos

Riccardo Muti 2004 New Year Concert by Vien Philharmonic Orchestra

  • Download 5x Faster
  • Download torrent
  • Direct Download
  • Rate this torrent +  |  -


Torrent info

Name:Riccardo Muti 2004 New Year Concert by Vien Philharmonic Orchestra

Total Size: 2.36 GB

Magnet: Magnet Link

Seeds: 0

Leechers: 0

Stream: Watch Online @ Movie4u

Last Updated: 2011-01-02 16:49:14 (Update Now)

Torrent added: 2009-09-13 06:36:01




Torrent Files List


20 Johann Strauss II - An der Schonen blauen Donau, Walzer.mkv (Size: 2.36 GB) (Files: 22)

 20 Johann Strauss II - An der Schonen blauen Donau, Walzer.mkv

329.63 MB

 17 Josef Strauss - Spharenklange, Walzer.mkv

282.25 MB

 06 Joseph Lanner - Hofball-Tanze, Walzer.mkv

221.85 MB

 08 Johann Strauss II - Ouverture zu Das Spitzentuch der Konigin.mkv

203.95 MB

 03 Johann Strauss I - Philomelen, Walzer.mkv

155.15 MB

 09 Johann Strauss II - Zigeunerin, Quadrille.mkv

133.75 MB

 13 Johann Strauss II - Csardas aus Die Fledermaus.mkv

112.59 MB

 15 Josef Strauss - Stiefmutterchen, Polka mazur.mkv

109.23 MB

 18 Johann Strauss II - Im Sturmschritt!, Polka schnell.mkv

107.76 MB

 11 Johann Strauss II - Satanella, Polka.mkv

94.37 MB

 21 Johann Strauss I - Radetzky, Marsch.mkv

88.55 MB

 01 Johann Strauss II - Es war so wunderschon, Marsch.mkv

77.90 MB

 04 Johann Strauss I - Frederika, Polka.mkv

76.73 MB

 19 Johann Strauss I - Indianer, Galopp.mkv

75.14 MB

 02 Johann Strauss I - Beliebte Sperl, Polka.mkv

70.71 MB

 07 Joseph Lanner - Tarantel, Galopp.mkv

60.32 MB

 14 Eduard Strauss - Mit Vergnugen!, Polka schnell.mkv

58.72 MB

 05 Johann Strauss I - Cachucha, Galopp.mkv

57.77 MB

 22 The Ending Credits.mkv

50.73 MB

 12 Josef Strauss - Eislauf, Polka schnell.mkv

48.23 MB

 00 Opening - Neujarskonezert der Wiener Philharmoniker, Dirigent Riccardo Muti.mkv

6.16 MB

 Riccardo Muti - 2004 New Year Concert by Vien Philharmonic Orchestra.nfo

66.57 KB
 

Announce URL: http://announce.nanoset.net/announce

Torrent description

Riccardo Muti - 2004 New Year Concert by Vien Philharmonic Orchestra

Track list
00 Opening - Neujarskonezert der Wiener Philharmoniker, Dirigent Riccardo Muti [0:24]
01 Johann Strauss II - Es war so wunderschon, Marsch [3:12]
02 Johann Strauss I - Beliebte Sperl, Polka [3:03]
03 Johann Strauss I - Philomelen, Walzer [6:22]
04 Johann Strauss I - Frederika, Polka [3:28]
05 Johann Strauss I - Cachucha, Galopp [2:19]
06 Joseph Lanner - Hofball-Tanze, Walzer [9:39]
07 Joseph Lanner - Tarantel, Galopp [2:27]
08 Johann Strauss II - Ouverture zu "Das Spitzentuch der Konigin" [8:47]
09 Johann Strauss II - Zigeunerin, Quadrille [5:32]
10 missing track (very bad jerky and jumpy source) - Johann Strauss II - Accelerationen, Walzer [18:09]
11 Johann Strauss II - Satanella, Polka [4:03]
12 Josef Strauss - Eislauf, Polka schnell [2:14]
13 Johann Strauss II - Csardas aus "Die Fledermaus" [4:55]
14 Eduard Strauss - Mit Vergnugen!, Polka schnell [2:29]
15 Josef Strauss - Stiefmutterchen, Polka mazur [4:54]
16 Johann Strauss II - Champangner, Polka [4:55]
17 Josef Strauss - Spharenklange, Walzer [10:33]
18 Johann Strauss II - Im Sturmschritt!, Polka schnell [4:01]
19 Johann Strauss I - Indianer, Galopp [3:02]
20 Johann Strauss II - An der Schonen blauen Donau, Walzer [12:55]
21 Johann Strauss I - Radetzky, Marsch [3:28]
22 The Ending Credits [1:54]

************************************************************************************************************
source

Format : MPEG-PS
File size : 1 024 MiB
Duration : 32mn 50s
Overall bit rate : 4 360 Kbps

Video
ID : 224 (0xE0)
Format : MPEG Video
Format version : Version 2
Format profile : [email protected]
Format settings, Matrix : Default
Duration : 32mn 50s
Bit rate mode : Variable
Bit rate : 2 984 Kbps
Nominal bit rate : 6 869 Kbps
Width : 720 pixels
Height : 480 pixels
Display aspect ratio : 16:9
Frame rate : 29.970 fps
Standard : NTSC
Colorimetry : 4:2:0
Scan type : Interlaced
Scan order : Top Field First
Bits/(Pixel*Frame) : 0.288
Stream size : 701 MiB (68%)

Audio #1
ID : 130 (0x82)
Format : AC-3
Format/Info : Audio Coding 3
Duration : 32mn 50s
Bit rate mode : Constant
Bit rate : 448 Kbps
Channel(s) : 5 channels
Channel positions : Front: L C R, Surround: L R
Sampling rate : 48.0 KHz
Stream size : 105 MiB (10%)


Format : MPEG-PS
File size : 1 024 MiB
Duration : 23mn 29s
Overall bit rate : 6 094 Kbps

Video
ID : 224 (0xE0)
Format : MPEG Video
Format version : Version 2
Format profile : [email protected]
Format settings, Matrix : Default
Duration : 23mn 29s
Bit rate mode : Variable
Bit rate : 4 649 Kbps
Nominal bit rate : 6 869 Kbps
Width : 720 pixels
Height : 480 pixels
Display aspect ratio : 16:9
Frame rate : 29.970 fps
Standard : NTSC
Colorimetry : 4:2:0
Scan type : Interlaced
Scan order : Top Field First
Bits/(Pixel*Frame) : 0.449
Stream size : 781 MiB (76%)

Audio #1
ID : 130 (0x82)
Format : AC-3
Format/Info : Audio Coding 3
Duration : 23mn 29s
Bit rate mode : Constant
Bit rate : 448 Kbps
Channel(s) : 5 channels
Channel positions : Front: L C R, Surround: L R
Sampling rate : 48.0 KHz
Video delay : -756ms
Stream size : 75.3 MiB (7%)


Format : MPEG-PS
File size : 1 024 MiB
Duration : 8mn 59s
Overall bit rate : 15.9 Mbps

Video
ID : 224 (0xE0)
Format : MPEG Video
Format version : Version 2
Format profile : [email protected]
Format settings, Matrix : Default
Duration : 8mn 59s
Bit rate mode : Variable
Bit rate : 14.1 Mbps
Nominal bit rate : 6 869 Kbps
Width : 720 pixels
Height : 480 pixels
Display aspect ratio : 16:9
Frame rate : 29.970 fps
Standard : NTSC
Colorimetry : 4:2:0
Scan type : Interlaced
Scan order : Top Field First
Bits/(Pixel*Frame) : 1.361
Stream size : 906 MiB (88%)

Audio #1
ID : 130 (0x82)
Format : AC-3
Format/Info : Audio Coding 3
Duration : 8mn 59s
Bit rate mode : Constant
Bit rate : 448 Kbps
Channel(s) : 5 channels
Channel positions : Front: L C R, Surround: L R
Sampling rate : 48.0 KHz
Video delay : -437ms
Stream size : 28.8 MiB (3%)


Format : MPEG-PS
File size : 793 MiB
Duration : 25mn 20s
Overall bit rate : 4 378 Kbps

Video
ID : 224 (0xE0)
Format : MPEG Video
Format version : Version 2
Format profile : [email protected]
Format settings, Matrix : Default
Duration : 25mn 20s
Bit rate mode : Variable
Bit rate : 3 002 Kbps
Nominal bit rate : 6 869 Kbps
Width : 720 pixels
Height : 480 pixels
Display aspect ratio : 16:9
Frame rate : 29.970 fps
Standard : NTSC
Colorimetry : 4:2:0
Scan type : Interlaced
Scan order : Top Field First
Bits/(Pixel*Frame) : 0.290
Stream size : 544 MiB (69%)

Audio #1
ID : 130 (0x82)
Format : AC-3
Format/Info : Audio Coding 3
Duration : 25mn 19s
Bit rate mode : Constant
Bit rate : 448 Kbps
Channel(s) : 5 channels
Channel positions : Front: L C R, Surround: L R
Sampling rate : 48.0 KHz
Video delay : -575ms
Stream size : 81.1 MiB (10%)

****************************************************************************************************************
AviSynth script by MeGUI

DGDecode_mpeg2source("all-VOBs.d2v", idct=5, cpu=6, info=3)
ColorMatrix(hints=true, interlaced=true, threads=0)
Load_Stdcall_Plugin("D:\Programs\meGUI\tools\yadif\yadif.dll")
Yadif(order=1)
crop( 16, 8, -16, -8)

*************************************************************************************

#track00 trim(0,720)
#track01 trim(721,6489)
#track02 trim(6490,11988)
#track03 trim(11989,23459)
#track04 trim(23460,29722)
#track05 trim(29723,33893)
#track06 trim(33894,51270)
#track07 trim(51271,55982)
#track08 trim(55983,71799)
#track09 trim(71800,81773)
#track10 trim(81774,114332)
#track11 trim(114333,121744)
#track12 trim(121745,125532)
#track13 trim(125533,134626)
#track14 trim(134627,139093)
#track15 trim(139094,147930)
#track16 trim(147931,156781)
#track17 trim(156782,175753)
#track18 trim(175754,182982)
#track19 trim(182983,188472)
#track20 trim(188473,211716)
#track21 trim(211717,217974)
#track22 trim(217975,0)

*************************************************************************************
New Format

container .MKV

video
fps 29.970
resolution 688 x 464 (black fileds and messy pixels croped, no resize)
codec x264
parameters --profile high --crf 18 --ref 16 --no-fast-pskip --bframes 4 --b-adapt 2 --b-pyramid --deblock -1:-1 --subme 9 --trellis 2 --partitions p8x8,b8x8,i4x4,i8x8 --me tesa --merange 32 --thread-input --no-dct-decimate --output "output" "input" --sar 186:157

audio UNTOUCHED 5channel .ac3 448kbps

*************************************************************************************
THE RESULT - x264 clips with .ac3 audio

General
Complete name : E:\Music_Bank.Jm\Riccardo Muti - 2004 New Year Concert by Vien Philharmonic Orchestra\00 Opening - Neujarskonezert der Wiener Philharmoniker, Dirigent Riccardo Muti.mkv
Format : Matroska
File size : 6.16 MiB
Duration : 24s 64ms
Overall bit rate : 2 146 Kbps
Encoded date : UTC 2009-09-04 21:17:37
Writing application : mkvmerge v2.9.7 ('Tenderness') built on Jul 1 2009 18:43:35
Writing library : libebml v0.7.7 + libmatroska v0.8.1

Video
ID : 1
Format : AVC
Format/Info : Advanced Video Codec
Format profile : [email protected]
Format settings, CABAC : Yes
Format settings, ReFrames : 16 frames
Muxing mode : Container [email protected]
Codec ID : V_MPEG4/ISO/AVC
Duration : 24s 33ms
Bit rate : 1 655 Kbps
Width : 688 pixels
Height : 464 pixels
Display aspect ratio : 16:9
Original display aspect ratio : 16:9
Frame rate : 29.970 fps
Resolution : 24 bits
Colorimetry : 4:2:0
Scan type : Progressive
Bits/(Pixel*Frame) : 0.173
Stream size : 4.74 MiB (77%)
Title : 00 Opening - Neujarskonezert der Wiener Philharmoniker, Dirigent Riccardo Muti - video.mp4
Writing library : x264 core 68 r1183M f21daff
Encoding settings : cabac=1 / ref=16 / deblock=1:-1:-1 / analyse=0x3:0x113 / me=tesa / subme=9 / psy_rd=1.0:0.0 / mixed_ref=1 / me_range=32 / chroma_me=1 / trellis=2 / 8x8dct=1 / cqm=0 / deadzone=21,11 / chroma_qp_offset=-2 / threads=1 / nr=0 / decimate=0 / mbaff=0 / bframes=4 / b_pyramid=1 / b_adapt=2 / b_bias=0 / direct=1 / wpredb=1 / keyint=250 / keyint_min=25 / scenecut=40 / rc=crf / crf=18.0 / qcomp=0.60 / qpmin=10 / qpmax=51 / qpstep=4 / ip_ratio=1.40 / pb_ratio=1.30 / aq=1:1.00

Audio
ID : 2
Format : AC-3
Format/Info : Audio Coding 3
Codec ID : A_AC3
Duration : 24s 64ms
Bit rate mode : Constant
Bit rate : 448 Kbps
Channel(s) : 5 channels
Channel positions : Front: L C R, Surround: L R
Sampling rate : 48.0 KHz
Stream size : 1.29 MiB (21%)
Title : 00 Opening - Neujarskonezert der Wiener Philharmoniker, Dirigent Riccardo Muti.ac3

General
Complete name : E:\Music_Bank.Jm\Riccardo Muti - 2004 New Year Concert by Vien Philharmonic Orchestra\01 Johann Strauss II - Es war so wunderschon, Marsch.mkv
Format : Matroska
File size : 77.9 MiB
Duration : 3mn 12s
Overall bit rate : 3 395 Kbps
Encoded date : UTC 2009-09-04 21:17:46
Writing application : mkvmerge v2.9.7 ('Tenderness') built on Jul 1 2009 18:43:35
Writing library : libebml v0.7.7 + libmatroska v0.8.1

Video
ID : 1
Format : AVC
Format/Info : Advanced Video Codec
Format profile : [email protected]
Format settings, CABAC : Yes
Format settings, ReFrames : 16 frames
Muxing mode : Container [email protected]
Codec ID : V_MPEG4/ISO/AVC
Duration : 3mn 12s
Bit rate : 2 879 Kbps
Width : 688 pixels
Height : 464 pixels
Display aspect ratio : 16:9
Original display aspect ratio : 16:9
Frame rate : 29.970 fps
Resolution : 24 bits
Colorimetry : 4:2:0
Scan type : Progressive
Bits/(Pixel*Frame) : 0.301
Stream size : 66.0 MiB (85%)
Title : 01 Johann Strauss II - Es war so wunderschon, Marsch - video.mp4
Writing library : x264 core 68 r1183M f21daff
Encoding settings : cabac=1 / ref=16 / deblock=1:-1:-1 / analyse=0x3:0x113 / me=tesa / subme=9 / psy_rd=1.0:0.0 / mixed_ref=1 / me_range=32 / chroma_me=1 / trellis=2 / 8x8dct=1 / cqm=0 / deadzone=21,11 / chroma_qp_offset=-2 / threads=1 / nr=0 / decimate=0 / mbaff=0 / bframes=4 / b_pyramid=1 / b_adapt=2 / b_bias=0 / direct=1 / wpredb=1 / keyint=250 / keyint_min=25 / scenecut=40 / rc=crf / crf=18.0 / qcomp=0.60 / qpmin=10 / qpmax=51 / qpstep=4 / ip_ratio=1.40 / pb_ratio=1.30 / aq=1:1.00

Audio
ID : 2
Format : AC-3
Format/Info : Audio Coding 3
Codec ID : A_AC3
Duration : 3mn 12s
Bit rate mode : Constant
Bit rate : 448 Kbps
Channel(s) : 5 channels
Channel positions : Front: L C R, Surround: L R
Sampling rate : 48.0 KHz
Stream size : 10.3 MiB (13%)

General
Complete name : E:\Music_Bank.Jm\Riccardo Muti - 2004 New Year Concert by Vien Philharmonic Orchestra\02 Johann Strauss I - Beliebte Sperl, Polka.mkv
Format : Matroska
File size : 70.7 MiB
Duration : 3mn 3s
Overall bit rate : 3 232 Kbps
Encoded date : UTC 2009-09-04 21:18:40
Writing application : mkvmerge v2.9.7 ('Tenderness') built on Jul 1 2009 18:43:35
Writing library : libebml v0.7.7 + libmatroska v0.8.1

Video
ID : 1
Format : AVC
Format/Info : Advanced Video Codec
Format profile : [email protected]
Format settings, CABAC : Yes
Format settings, ReFrames : 16 frames
Muxing mode : Container [email protected]
Codec ID : V_MPEG4/ISO/AVC
Duration : 3mn 3s
Bit rate : 2 720 Kbps
Width : 688 pixels
Height : 464 pixels
Display aspect ratio : 16:9
Original display aspect ratio : 16:9
Frame rate : 29.970 fps
Resolution : 24 bits
Colorimetry : 4:2:0
Scan type : Progressive
Bits/(Pixel*Frame) : 0.284
Stream size : 59.4 MiB (84%)
Title : 02 Johann Strauss I - Beliebte Sperl, Polka - video.mp4
Writing library : x264 core 68 r1183M f21daff
Encoding settings : cabac=1 / ref=16 / deblock=1:-1:-1 / analyse=0x3:0x113 / me=tesa / subme=9 / psy_rd=1.0:0.0 / mixed_ref=1 / me_range=32 / chroma_me=1 / trellis=2 / 8x8dct=1 / cqm=0 / deadzone=21,11 / chroma_qp_offset=-2 / threads=1 / nr=0 / decimate=0 / mbaff=0 / bframes=4 / b_pyramid=1 / b_adapt=2 / b_bias=0 / direct=1 / wpredb=1 / keyint=250 / keyint_min=25 / scenecut=40 / rc=crf / crf=18.0 / qcomp=0.60 / qpmin=10 / qpmax=51 / qpstep=4 / ip_ratio=1.40 / pb_ratio=1.30 / aq=1:1.00

Audio
ID : 2
Format : AC-3
Format/Info : Audio Coding 3
Codec ID : A_AC3
Duration : 3mn 3s
Bit rate mode : Constant
Bit rate : 448 Kbps
Channel(s) : 5 channels
Channel positions : Front: L C R, Surround: L R
Sampling rate : 48.0 KHz
Stream size : 9.80 MiB (14%)

General
Complete name : E:\Music_Bank.Jm\Riccardo Muti - 2004 New Year Concert by Vien Philharmonic Orchestra\03 Johann Strauss I - Philomelen, Walzer.mkv
Format : Matroska
File size : 155 MiB
Duration : 6mn 22s
Overall bit rate : 3 400 Kbps
Encoded date : UTC 2009-09-04 21:19:29
Writing application : mkvmerge v2.9.7 ('Tenderness') built on Jul 1 2009 18:43:35
Writing library : libebml v0.7.7 + libmatroska v0.8.1

Video
ID : 1
Format : AVC
Format/Info : Advanced Video Codec
Format profile : [email protected]
Format settings, CABAC : Yes
Format settings, ReFrames : 16 frames
Muxing mode : Container [email protected]
Codec ID : V_MPEG4/ISO/AVC
Duration : 6mn 22s
Bit rate : 2 885 Kbps
Width : 688 pixels
Height : 464 pixels
Display aspect ratio : 16:9
Original display aspect ratio : 16:9
Frame rate : 29.970 fps
Resolution : 24 bits
Colorimetry : 4:2:0
Scan type : Progressive
Bits/(Pixel*Frame) : 0.302
Stream size : 131 MiB (85%)
Title : 03 Johann Strauss I - Philomelen, Walzer - video.mp4
Writing library : x264 core 68 r1183M f21daff
Encoding settings : cabac=1 / ref=16 / deblock=1:-1:-1 / analyse=0x3:0x113 / me=tesa / subme=9 / psy_rd=1.0:0.0 / mixed_ref=1 / me_range=32 / chroma_me=1 / trellis=2 / 8x8dct=1 / cqm=0 / deadzone=21,11 / chroma_qp_offset=-2 / threads=1 / nr=0 / decimate=0 / mbaff=0 / bframes=4 / b_pyramid=1 / b_adapt=2 / b_bias=0 / direct=1 / wpredb=1 / keyint=250 / keyint_min=25 / scenecut=40 / rc=crf / crf=18.0 / qcomp=0.60 / qpmin=10 / qpmax=51 / qpstep=4 / ip_ratio=1.40 / pb_ratio=1.30 / aq=1:1.00

Audio
ID : 2
Format : AC-3
Format/Info : Audio Coding 3
Codec ID : A_AC3
Duration : 6mn 22s
Bit rate mode : Constant
Bit rate : 448 Kbps
Channel(s) : 5 channels
Channel positions : Front: L C R, Surround: L R
Sampling rate : 48.0 KHz
Stream size : 20.4 MiB (13%)
Title : 03 Johann Strauss I - Philomelen, Walzer.ac3

General
Complete name : E:\Music_Bank.Jm\Riccardo Muti - 2004 New Year Concert by Vien Philharmonic Orchestra\04 Johann Strauss I - Frederika, Polka.mkv
Format : Matroska
File size : 76.7 MiB
Duration : 3mn 28s
Overall bit rate : 3 080 Kbps
Encoded date : UTC 2009-09-04 21:21:19
Writing application : mkvmerge v2.9.7 ('Tenderness') built on Jul 1 2009 18:43:35
Writing library : libebml v0.7.7 + libmatroska v0.8.1

Video
ID : 1
Format : AVC
Format/Info : Advanced Video Codec
Format profile : [email protected]
Format settings, CABAC : Yes
Format settings, ReFrames : 16 frames
Muxing mode : Container [email protected]
Codec ID : V_MPEG4/ISO/AVC
Duration : 3mn 28s
Bit rate : 2 570 Kbps
Width : 688 pixels
Height : 464 pixels
Display aspect ratio : 16:9
Original display aspect ratio : 16:9
Frame rate : 29.970 fps
Resolution : 24 bits
Colorimetry : 4:2:0
Scan type : Progressive
Bits/(Pixel*Frame) : 0.269
Stream size : 64.0 MiB (83%)
Title : 04 Johann Strauss I - Frederika, Polka - video.mp4
Writing library : x264 core 68 r1183M f21daff
Encoding settings : cabac=1 / ref=16 / deblock=1:-1:-1 / analyse=0x3:0x113 / me=tesa / subme=9 / psy_rd=1.0:0.0 / mixed_ref=1 / me_range=32 / chroma_me=1 / trellis=2 / 8x8dct=1 / cqm=0 / deadzone=21,11 / chroma_qp_offset=-2 / threads=1 / nr=0 / decimate=0 / mbaff=0 / bframes=4 / b_pyramid=1 / b_adapt=2 / b_bias=0 / direct=1 / wpredb=1 / keyint=250 / keyint_min=25 / scenecut=40 / rc=crf / crf=18.0 / qcomp=0.60 / qpmin=10 / qpmax=51 / qpstep=4 / ip_ratio=1.40 / pb_ratio=1.30 / aq=1:1.00

Audio
ID : 2
Format : AC-3
Format/Info : Audio Coding 3
Codec ID : A_AC3
Duration : 3mn 28s
Bit rate mode : Constant
Bit rate : 448 Kbps
Channel(s) : 5 channels
Channel positions : Front: L C R, Surround: L R
Sampling rate : 48.0 KHz
Stream size : 11.2 MiB (15%)
Title : 04 Johann Strauss I - Frederika, Polka.ac3

General
Complete name : E:\Music_Bank.Jm\Riccardo Muti - 2004 New Year Concert by Vien Philharmonic Orchestra\05 Johann Strauss I - Cachucha, Galopp.mkv
Format : Matroska
File size : 57.8 MiB
Duration : 2mn 19s
Overall bit rate : 3 482 Kbps
Encoded date : UTC 2009-09-04 21:22:11
Writing application : mkvmerge v2.9.7 ('Tenderness') built on Jul 1 2009 18:43:35
Writing library : libebml v0.7.7 + libmatroska v0.8.1

Video
ID : 1
Format : AVC
Format/Info : Advanced Video Codec
Format profile : [email protected]
Format settings, CABAC : Yes
Format settings, ReFrames : 16 frames
Muxing mode : Container [email protected]
Codec ID : V_MPEG4/ISO/AVC
Duration : 2mn 19s
Bit rate : 2 965 Kbps
Width : 688 pixels
Height : 464 pixels
Display aspect ratio : 16:9
Original display aspect ratio : 16:9
Frame rate : 29.970 fps
Resolution : 24 bits
Colorimetry : 4:2:0
Scan type : Progressive
Bits/(Pixel*Frame) : 0.310
Stream size : 49.1 MiB (85%)
Title : 05 Johann Strauss I - Cachucha, Galopp - video.mp4
Writing library : x264 core 68 r1183M f21daff
Encoding settings : cabac=1 / ref=16 / deblock=1:-1:-1 / analyse=0x3:0x113 / me=tesa / subme=9 / psy_rd=1.0:0.0 / mixed_ref=1 / me_range=32 / chroma_me=1 / trellis=2 / 8x8dct=1 / cqm=0 / deadzone=21,11 / chroma_qp_offset=-2 / threads=1 / nr=0 / decimate=0 / mbaff=0 / bframes=4 / b_pyramid=1 / b_adapt=2 / b_bias=0 / direct=1 / wpredb=1 / keyint=250 / keyint_min=25 / scenecut=40 / rc=crf / crf=18.0 / qcomp=0.60 / qpmin=10 / qpmax=51 / qpstep=4 / ip_ratio=1.40 / pb_ratio=1.30 / aq=1:1.00

Audio
ID : 2
Format : AC-3
Format/Info : Audio Coding 3
Codec ID : A_AC3
Duration : 2mn 19s
Bit rate mode : Constant
Bit rate : 448 Kbps
Channel(s) : 5 channels
Channel positions : Front: L C R, Surround: L R
Sampling rate : 48.0 KHz
Stream size : 7.43 MiB (13%)
Title : 05 Johann Strauss I - Cachucha, Galopp.ac3

General
Complete name : E:\Music_Bank.Jm\Riccardo Muti - 2004 New Year Concert by Vien Philharmonic Orchestra\06 Joseph Lanner - Hofball-Tanze, Walzer.mkv
Format : Matroska
File size : 222 MiB
Duration : 9mn 39s
Overall bit rate : 3 210 Kbps
Encoded date : UTC 2009-09-04 21:22:51
Writing application : mkvmerge v2.9.7 ('Tenderness') built on Jul 1 2009 18:43:35
Writing library : libebml v0.7.7 + libmatroska v0.8.1

Video
ID : 1
Format : AVC
Format/Info : Advanced Video Codec
Format profile : [email protected]
Format settings, CABAC : Yes
Format settings, ReFrames : 16 frames
Muxing mode : Container [email protected]
Codec ID : V_MPEG4/ISO/AVC
Duration : 9mn 39s
Bit rate : 2 698 Kbps
Width : 688 pixels
Height : 464 pixels
Display aspect ratio : 16:9
Original display aspect ratio : 16:9
Frame rate : 29.970 fps
Resolution : 24 bits
Colorimetry : 4:2:0
Scan type : Progressive
Bits/(Pixel*Frame) : 0.282
Stream size : 186 MiB (84%)
Title : 06 Joseph Lanner - Hofball-Tanze, Walzer - video.mp4
Writing library : x264 core 68 r1183M f21daff
Encoding settings : cabac=1 / ref=16 / deblock=1:-1:-1 / analyse=0x3:0x113 / me=tesa / subme=9 / psy_rd=1.0:0.0 / mixed_ref=1 / me_range=32 / chroma_me=1 / trellis=2 / 8x8dct=1 / cqm=0 / deadzone=21,11 / chroma_qp_offset=-2 / threads=1 / nr=0 / decimate=0 / mbaff=0 / bframes=4 / b_pyramid=1 / b_adapt=2 / b_bias=0 / direct=1 / wpredb=1 / keyint=250 / keyint_min=25 / scenecut=40 / rc=crf / crf=18.0 / qcomp=0.60 / qpmin=10 / qpmax=51 / qpstep=4 / ip_ratio=1.40 / pb_ratio=1.30 / aq=1:1.00

Audio
ID : 2
Format : AC-3
Format/Info : Audio Coding 3
Codec ID : A_AC3
Duration : 9mn 39s
Bit rate mode : Constant
Bit rate : 448 Kbps
Channel(s) : 5 channels
Channel positions : Front: L C R, Surround: L R
Sampling rate : 48.0 KHz
Stream size : 31.0 MiB (14%)
Title : 06 Joseph Lanner - Hofball-Tanze, Walzer.ac3

General
Complete name : E:\Music_Bank.Jm\Riccardo Muti - 2004 New Year Concert by Vien Philharmonic Orchestra\07 Joseph Lanner - Tarantel, Galopp.mkv
Format : Matroska
File size : 60.3 MiB
Duration : 2mn 37s
Overall bit rate : 3 219 Kbps
Encoded date : UTC 2009-09-04 21:25:27
Writing application : mkvmerge v2.9.7 ('Tenderness') built on Jul 1 2009 18:43:35
Writing library : libebml v0.7.7 + libmatroska v0.8.1

Video
ID : 1
Format : AVC
Format/Info : Advanced Video Codec
Format profile : [email protected]
Format settings, CABAC : Yes
Format settings, ReFrames : 16 frames
Muxing mode : Container [email protected]
Codec ID : V_MPEG4/ISO/AVC
Duration : 2mn 37s
Bit rate : 2 706 Kbps
Width : 688 pixels
Height : 464 pixels
Display aspect ratio : 16:9
Original display aspect ratio : 16:9
Frame rate : 29.970 fps
Resolution : 24 bits
Colorimetry : 4:2:0
Scan type : Progressive
Bits/(Pixel*Frame) : 0.283
Stream size : 50.7 MiB (84%)
Title : 07 Joseph Lanner - Tarantel, Galopp - vidoe.mp4
Writing library : x264 core 68 r1183M f21daff
Encoding settings : cabac=1 / ref=16 / deblock=1:-1:-1 / analyse=0x3:0x113 / me=tesa / subme=9 / psy_rd=1.0:0.0 / mixed_ref=1 / me_range=32 / chroma_me=1 / trellis=2 / 8x8dct=1 / cqm=0 / deadzone=21,11 / chroma_qp_offset=-2 / threads=1 / nr=0 / decimate=0 / mbaff=0 / bframes=4 / b_pyramid=1 / b_adapt=2 / b_bias=0 / direct=1 / wpredb=1 / keyint=250 / keyint_min=25 / scenecut=40 / rc=crf / crf=18.0 / qcomp=0.60 / qpmin=10 / qpmax=51 / qpstep=4 / ip_ratio=1.40 / pb_ratio=1.30 / aq=1:1.00

Audio
ID : 2
Format : AC-3
Format/Info : Audio Coding 3
Codec ID : A_AC3
Duration : 2mn 37s
Bit rate mode : Constant
Bit rate : 448 Kbps
Channel(s) : 5 channels
Channel positions : Front: L C R, Surround: L R
Sampling rate : 48.0 KHz
Stream size : 8.40 MiB (14%)
Title : 07 Joseph Lanner - Tarantel, Galopp.ac3

General
Complete name : E:\Music_Bank.Jm\Riccardo Muti - 2004 New Year Concert by Vien Philharmonic Orchestra\08 Johann Strauss II - Ouverture zu Das Spitzentuch der Konigin.mkv
Format : Matroska
File size : 204 MiB
Duration : 8mn 47s
Overall bit rate : 3 242 Kbps
Encoded date : UTC 2009-09-04 21:25:35
Writing application : mkvmerge v2.9.7 ('Tenderness') built on Jul 1 2009 18:43:35
Writing library : libebml v0.7.7 + libmatroska v0.8.1

Video
ID : 1
Format : AVC
Format/Info : Advanced Video Codec
Format profile : [email protected]
Format settings, CABAC : Yes
Format settings, ReFrames : 16 frames
Muxing mode : Container [email protected]
Codec ID : V_MPEG4/ISO/AVC
Duration : 8mn 47s
Bit rate : 2 729 Kbps
Width : 688 pixels
Height : 464 pixels
Display aspect ratio : 16:9
Original display aspect ratio : 16:9
Frame rate : 29.970 fps
Resolution : 24 bits
Colorimetry : 4:2:0
Scan type : Progressive
Bits/(Pixel*Frame) : 0.285
Stream size : 172 MiB (84%)
Title : 08 Johann Strauss II - Ouverture zu Das Spitzentuch der Konigin - video.mp4
Writing library : x264 core 68 r1183M f21daff
Encoding settings : cabac=1 / ref=16 / deblock=1:-1:-1 / analyse=0x3:0x113 / me=tesa / subme=9 / psy_rd=1.0:0.0 / mixed_ref=1 / me_range=32 / chroma_me=1 / trellis=2 / 8x8dct=1 / cqm=0 / deadzone=21,11 / chroma_qp_offset=-2 / threads=1 / nr=0 / decimate=0 / mbaff=0 / bframes=4 / b_pyramid=1 / b_adapt=2 / b_bias=0 / direct=1 / wpredb=1 / keyint=250 / keyint_min=25 / scenecut=40 / rc=crf / crf=18.0 / qcomp=0.60 / qpmin=10 / qpmax=51 / qpstep=4 / ip_ratio=1.40 / pb_ratio=1.30 / aq=1:1.00

Audio
ID : 2
Format : AC-3
Format/Info : Audio Coding 3
Codec ID : A_AC3
Duration : 8mn 47s
Bit rate mode : Constant
Bit rate : 448 Kbps
Channel(s) : 5 channels
Channel positions : Front: L C R, Surround: L R
Sampling rate : 48.0 KHz
Stream size : 28.2 MiB (14%)
Title : 08 Johann Strauss II - Ouverture zu Das Spitzentuch der Konigin.ac3

General
Complete name : E:\Music_Bank.Jm\Riccardo Muti - 2004 New Year Concert by Vien Philharmonic Orchestra\09 Johann Strauss II - Zigeunerin, Quadrille.mkv
Format : Matroska
File size : 134 MiB
Duration : 5mn 32s
Overall bit rate : 3 371 Kbps
Encoded date : UTC 2009-09-04 21:25:55
Writing application : mkvmerge v2.9.7 ('Tenderness') built on Jul 1 2009 18:43:35
Writing library : libebml v0.7.7 + libmatroska v0.8.1

Video
ID : 1
Format : AVC
Format/Info : Advanced Video Codec
Format profile : [email protected]
Format settings, CABAC : Yes
Format settings, ReFrames : 16 frames
Muxing mode : Container [email protected]
Codec ID : V_MPEG4/ISO/AVC
Duration : 5mn 32s
Bit rate : 2 856 Kbps
Width : 688 pixels
Height : 464 pixels
Display aspect ratio : 16:9
Original display aspect ratio : 16:9
Frame rate : 29.970 fps
Resolution : 24 bits
Colorimetry : 4:2:0
Scan type : Progressive
Bits/(Pixel*Frame) : 0.299
Stream size : 113 MiB (85%)
Title : 09 Johann Strauss II - Zigeunerin, Quadrille - video.mp4
Writing library : x264 core 68 r1183M f21daff
Encoding settings : cabac=1 / ref=16 / deblock=1:-1:-1 / analyse=0x3:0x113 / me=tesa / subme=9 / psy_rd=1.0:0.0 / mixed_ref=1 / me_range=32 / chroma_me=1 / trellis=2 / 8x8dct=1 / cqm=0 / deadzone=21,11 / chroma_qp_offset=-2 / threads=1 / nr=0 / decimate=0 / mbaff=0 / bframes=4 / b_pyramid=1 / b_adapt=2 / b_bias=0 / direct=1 / wpredb=1 / keyint=250 / keyint_min=25 / scenecut=40 / rc=crf / crf=18.0 / qcomp=0.60 / qpmin=10 / qpmax=51 / qpstep=4 / ip_ratio=1.40 / pb_ratio=1.30 / aq=1:1.00

Audio
ID : 2
Format : AC-3
Format/Info : Audio Coding 3
Codec ID : A_AC3
Duration : 5mn 32s
Bit rate mode : Constant
Bit rate : 448 Kbps
Channel(s) : 5 channels
Channel positions : Front: L C R, Surround: L R
Sampling rate : 48.0 KHz
Stream size : 17.8 MiB (13%)
Title : 09 Johann Strauss II - Zigeunerin, Quadrille.ac3

General
Complete name : E:\Music_Bank.Jm\Riccardo Muti - 2004 New Year Concert by Vien Philharmonic Orchestra\11 Johann Strauss II - Satanella, Polka.mkv
Format : Matroska
File size : 94.4 MiB
Duration : 4mn 3s
Overall bit rate : 3 245 Kbps
Encoded date : UTC 2009-09-12 11:31:24
Writing application : mkvmerge v2.9.7 ('Tenderness') built on Jul 1 2009 18:43:35
Writing library : libebml v0.7.7 + libmatroska v0.8.1

Video
ID : 1
Format : AVC
Format/Info : Advanced Video Codec
Format profile : [email protected]
Format settings, CABAC : Yes
Format settings, ReFrames : 16 frames
Muxing mode : Container [email protected]
Codec ID : V_MPEG4/ISO/AVC
Duration : 4mn 3s
Bit rate : 2 732 Kbps
Width : 688 pixels
Height : 464 pixels
Display aspect ratio : 16:9
Original display aspect ratio : 16:9
Frame rate : 29.970 fps
Resolution : 24 bits
Colorimetry : 4:2:0
Scan type : Progressive
Bits/(Pixel*Frame) : 0.286
Stream size : 79.4 MiB (84%)
Title : 11 Johann Strauss II - Satanella, Polka - video.mp4
Writing library : x264 core 68 r1183M f21daff
Encoding settings : cabac=1 / ref=16 / deblock=1:-1:-1 / analyse=0x3:0x113 / me=tesa / subme=9 / psy_rd=1.0:0.0 / mixed_ref=1 / me_range=32 / chroma_me=1 / trellis=2 / 8x8dct=1 / cqm=0 / deadzone=21,11 / chroma_qp_offset=-2 / threads=1 / nr=0 / decimate=0 / mbaff=0 / bframes=4 / b_pyramid=1 / b_adapt=2 / b_bias=0 / direct=1 / wpredb=1 / keyint=250 / keyint_min=25 / scenecut=40 / rc=crf / crf=18.0 / qcomp=0.60 / qpmin=10 / qpmax=51 / qpstep=4 / ip_ratio=1.40 / pb_ratio=1.30 / aq=1:1.00

Audio
ID : 2
Format : AC-3
Format/Info : Audio Coding 3
Codec ID : A_AC3
Duration : 4mn 3s
Bit rate mode : Constant
Bit rate : 448 Kbps
Channel(s) : 5 channels
Channel positions : Front: L C R, Surround: L R
Sampling rate : 48.0 KHz
Stream size : 13.0 MiB (14%)
Title : 11 Johann Strauss II - Satanella, Polka

General
Complete name : E:\Music_Bank.Jm\Riccardo Muti - 2004 New Year Concert by Vien Philharmonic Orchestra\12 Josef Strauss - Eislauf, Polka schnell.mkv
Format : Matroska
File size : 48.2 MiB
Duration : 2mn 14s
Overall bit rate : 3 010 Kbps
Encoded date : UTC 2009-09-12 11:50:43
Writing application : mkvmerge v2.9.7 ('Tenderness') built on Jul 1 2009 18:43:35
Writing library : libebml v0.7.7 + libmatroska v0.8.1

Video
ID : 1
Format : AVC
Format/Info : Advanced Video Codec
Format profile : [email protected]
Format settings, CABAC : Yes
Format settings, ReFrames : 16 frames
Muxing mode : Container [email protected]
Codec ID : V_MPEG4/ISO/AVC
Duration : 2mn 14s
Bit rate : 2 502 Kbps
Width : 688 pixels
Height : 464 pixels
Display aspect ratio : 16:9
Original display aspect ratio : 16:9
Frame rate : 29.970 fps
Resolution : 24 bits
Colorimetry : 4:2:0
Scan type : Progressive
Bits/(Pixel*Frame) : 0.262
Stream size : 40.1 MiB (83%)
Title : 12 Josef Strauss - Eislauf, Polka schnell - video.mp4
Writing library : x264 core 68 r1183M f21daff
Encoding settings : cabac=1 / ref=16 / deblock=1:-1:-1 / analyse=0x3:0x113 / me=tesa / subme=9 / psy_rd=1.0:0.0 / mixed_ref=1 / me_range=32 / chroma_me=1 / trellis=2 / 8x8dct=1 / cqm=0 / deadzone=21,11 / chroma_qp_offset=-2 / threads=1 / nr=0 / decimate=0 / mbaff=0 / bframes=4 / b_pyramid=1 / b_adapt=2 / b_bias=0 / direct=1 / wpredb=1 / keyint=250 / keyint_min=25 / scenecut=40 / rc=crf / crf=18.0 / qcomp=0.60 / qpmin=10 / qpmax=51 / qpstep=4 / ip_ratio=1.40 / pb_ratio=1.30 / aq=1:1.00

Audio
ID : 2
Format : AC-3
Format/Info : Audio Coding 3
Codec ID : A_AC3
Duration : 2mn 14s
Bit rate mode : Constant
Bit rate : 448 Kbps
Channel(s) : 5 channels
Channel positions : Front: L C R, Surround: L R
Sampling rate : 48.0 KHz
Stream size : 7.18 MiB (15%)
Title : 12 Josef Strauss - Eislauf, Polka schnell.ac3

General
Complete name : E:\Music_Bank.Jm\Riccardo Muti - 2004 New Year Concert by Vien Philharmonic Orchestra\13 Johann Strauss II - Csardas aus Die Fledermaus.mkv
Format : Matroska
File size : 113 MiB
Duration : 4mn 55s
Overall bit rate : 3 197 Kbps
Encoded date : UTC 2009-09-13 09:00:50
Writing application : mkvmerge v2.9.7 ('Tenderness') built on Jul 1 2009 18:43:35
Writing library : libebml v0.7.7 + libmatroska v0.8.1

Video
ID : 1
Format : AVC
Format/Info : Advanced Video Codec
Format profile : [email protected]
Format settings, CABAC : Yes
Format settings, ReFrames : 16 frames
Muxing mode : Container [email protected]
Codec ID : V_MPEG4/ISO/AVC
Duration : 4mn 55s
Bit rate : 2 685 Kbps
Width : 688 pixels
Height : 464 pixels
Display aspect ratio : 16:9
Original display aspect ratio : 16:9
Frame rate : 29.970 fps
Resolution : 24 bits
Colorimetry : 4:2:0
Scan type : Progressive
Bits/(Pixel*Frame) : 0.281
Stream size : 94.5 MiB (84%)
Title : 13 Johann Strauss II - Csardas aus Die Fledermaus.mp4
Writing library : x264 core 68 r1183M f21daff
Encoding settings : cabac=1 / ref=16 / deblock=1:-1:-1 / analyse=0x3:0x113 / me=tesa / subme=9 / psy_rd=1.0:0.0 / mixed_ref=1 / me_range=32 / chroma_me=1 / trellis=2 / 8x8dct=1 / cqm=0 / deadzone=21,11 / chroma_qp_offset=-2 / threads=1 / nr=0 / decimate=0 / mbaff=0 / bframes=4 / b_pyramid=1 / b_adapt=2 / b_bias=0 / direct=1 / wpredb=1 / keyint=250 / keyint_min=25 / scenecut=40 / rc=crf / crf=18.0 / qcomp=0.60 / qpmin=10 / qpmax=51 / qpstep=4 / ip_ratio=1.40 / pb_ratio=1.30 / aq=1:1.00

Audio
ID : 2
Format : AC-3
Format/Info : Audio Coding 3
Codec ID : A_AC3
Duration : 4mn 55s
Bit rate mode : Constant
Bit rate : 448 Kbps
Channel(s) : 5 channels
Channel positions : Front: L C R, Surround: L R
Sampling rate : 48.0 KHz
Stream size : 15.8 MiB (14%)
Title : 13 Johann Strauss II - Csardas aus Die Fledermaus.ac3

General
Complete name : E:\Music_Bank.Jm\Riccardo Muti - 2004 New Year Concert by Vien Philharmonic Orchestra\14 Eduard Strauss - Mit Vergnugen!, Polka schnell.mkv
Format : Matroska
File size : 58.7 MiB
Duration : 2mn 29s
Overall bit rate : 3 304 Kbps
Encoded date : UTC 2009-09-12 12:12:33
Writing application : mkvmerge v2.9.7 ('Tenderness') built on Jul 1 2009 18:43:35
Writing library : libebml v0.7.7 + libmatroska v0.8.1

Video
ID : 1
Format : AVC
Format/Info : Advanced Video Codec
Format profile : [email protected]
Format settings, CABAC : Yes
Format settings, ReFrames : 16 frames
Muxing mode : Container [email protected]
Codec ID : V_MPEG4/ISO/AVC
Duration : 2mn 28s
Bit rate : 2 791 Kbps
Width : 688 pixels
Height : 464 pixels
Display aspect ratio : 16:9
Original display aspect ratio : 16:9
Frame rate : 29.970 fps
Resolution : 24 bits
Colorimetry : 4:2:0
Scan type : Progressive
Bits/(Pixel*Frame) : 0.292
Stream size : 49.5 MiB (84%)
Title : 14 Eduard Strauss - Mit Vergnugen!, Polka schnell - video.mp4
Writing library : x264 core 68 r1183M f21daff
Encoding settings : cabac=1 / ref=16 / deblock=1:-1:-1 / analyse=0x3:0x113 / me=tesa / subme=9 / psy_rd=1.0:0.0 / mixed_ref=1 / me_range=32 / chroma_me=1 / trellis=2 / 8x8dct=1 / cqm=0 / deadzone=21,11 / chroma_qp_offset=-2 / threads=1 / nr=0 / decimate=0 / mbaff=0 / bframes=4 / b_pyramid=1 / b_adapt=2 / b_bias=0 / direct=1 / wpredb=1 / keyint=250 / keyint_min=25 / scenecut=40 / rc=crf / crf=18.0 / qcomp=0.60 / qpmin=10 / qpmax=51 / qpstep=4 / ip_ratio=1.40 / pb_ratio=1.30 / aq=1:1.00

Audio
ID : 2
Format : AC-3
Format/Info : Audio Coding 3
Codec ID : A_AC3
Duration : 2mn 29s
Bit rate mode : Constant
Bit rate : 448 Kbps
Channel(s) : 5 channels
Channel positions : Front: L C R, Surround: L R
Sampling rate : 48.0 KHz
Stream size : 7.96 MiB (14%)
Title : 14 Eduard Strauss - Mit Vergnugen!, Polka schnell.ac3

General
Complete name : E:\Music_Bank.Jm\Riccardo Muti - 2004 New Year Concert by Vien Philharmonic Orchestra\15 Josef Strauss - Stiefmutterchen, Polka mazur.mkv
Format : Matroska
File size : 109 MiB
Duration : 4mn 54s
Overall bit rate : 3 108 Kbps
Encoded date : UTC 2009-09-12 12:23:38
Writing application : mkvmerge v2.9.7 ('Tenderness') built on Jul 1 2009 18:43:35
Writing library : libebml v0.7.7 + libmatroska v0.8.1

Video
ID : 1
Format : AVC
Format/Info : Advanced Video Codec
Format profile : [email protected]
Format settings, CABAC : Yes
Format settings, ReFrames : 16 frames
Muxing mode : Container [email protected]
Codec ID : V_MPEG4/ISO/AVC
Duration : 4mn 54s
Bit rate : 2 598 Kbps
Width : 688 pixels
Height : 464 pixels
Display aspect ratio : 16:9
Original display aspect ratio : 16:9
Frame rate : 29.970 fps
Resolution : 24 bits
Colorimetry : 4:2:0
Scan type : Progressive
Bits/(Pixel*Frame) : 0.272
Stream size : 91.2 MiB (84%)
Title : 15 Josef Strauss - Stiefmutterchen, Polka mazur.mp4
Writing library : x264 core 68 r1183M f21daff
Encoding settings : cabac=1 / ref=16 / deblock=1:-1:-1 / analyse=0x3:0x113 / me=tesa / subme=9 / psy_rd=1.0:0.0 / mixed_ref=1 / me_range=32 / chroma_me=1 / trellis=2 / 8x8dct=1 / cqm=0 / deadzone=21,11 / chroma_qp_offset=-2 / threads=1 / nr=0 / decimate=0 / mbaff=0 / bframes=4 / b_pyramid=1 / b_adapt=2 / b_bias=0 / direct=1 / wpredb=1 / keyint=250 / keyint_min=25 / scenecut=40 / rc=crf / crf=18.0 / qcomp=0.60 / qpmin=10 / qpmax=51 / qpstep=4 / ip_ratio=1.40 / pb_ratio=1.30 / aq=1:1.00

Audio
ID : 2
Format : AC-3
Format/Info : Audio Coding 3
Codec ID : A_AC3
Duration : 4mn 54s
Bit rate mode : Constant
Bit rate : 448 Kbps
Channel(s) : 5 channels
Channel positions : Front: L C R, Surround: L R
Sampling rate : 48.0 KHz
Stream size : 15.7 MiB (14%)
Title : 15 Josef Strauss - Stiefmutterchen, Polka mazur.ac3

General
Complete name : E:\Music_Bank.Jm\Riccardo Muti - 2004 New Year Concert by Vien Philharmonic Orchestra\17 Josef Strauss - Spharenklange, Walzer.mkv
Format : Matroska
File size : 282 MiB
Duration : 10mn 33s
Overall bit rate : 3 740 Kbps
Encoded date : UTC 2009-09-12 16:07:21
Writing application : mkvmerge v2.9.7 ('Tenderness') built on Jul 1 2009 18:43:35
Writing library : libebml v0.7.7 + libmatroska v0.8.1

Video
ID : 1
Format : AVC
Format/Info : Advanced Video Codec
Format profile : [email protected]
Format settings, CABAC : Yes
Format settings, ReFrames : 16 frames
Muxing mode : Container [email protected]
Codec ID : V_MPEG4/ISO/AVC
Duration : 10mn 32s
Bit rate : 3 218 Kbps
Width : 688 pixels
Height : 464 pixels
Display aspect ratio : 16:9
Original display aspect ratio : 16:9
Frame rate : 29.970 fps
Resolution : 24 bits
Colorimetry : 4:2:0
Scan type : Progressive
Bits/(Pixel*Frame) : 0.336
Stream size : 243 MiB (86%)
Title : 17 Josef Strauss - Spharenklange, Walzer.mp4
Writing library : x264 core 68 r1183M f21daff
Encoding settings : cabac=1 / ref=16 / deblock=1:-1:-1 / analyse=0x3:0x113 / me=tesa / subme=9 / psy_rd=1.0:0.0 / mixed_ref=1 / me_range=32 / chroma_me=1 / trellis=2 / 8x8dct=1 / cqm=0 / deadzone=21,11 / chroma_qp_offset=-2 / threads=1 / nr=0 / decimate=0 / mbaff=0 / bframes=4 / b_pyramid=1 / b_adapt=2 / b_bias=0 / direct=1 / wpredb=1 / keyint=250 / keyint_min=25 / scenecut=40 / rc=crf / crf=18.0 / qcomp=0.60 / qpmin=10 / qpmax=51 / qpstep=4 / ip_ratio=1.40 / pb_ratio=1.30 / aq=1:1.00

Audio
ID : 2
Format : AC-3
Format/Info : Audio Coding 3
Codec ID : A_AC3
Duration : 10mn 33s
Bit rate mode : Constant
Bit rate : 448 Kbps
Channel(s) : 5 channels
Channel positions : Front: L C R, Surround: L R
Sampling rate : 48.0 KHz
Stream size : 33.8 MiB (12%)
Title : 17 Josef Strauss - Spharenklange, Walzer.ac3

General
Complete name : E:\Music_Bank.Jm\Riccardo Muti - 2004 New Year Concert by Vien Philharmonic Orchestra\18 Johann Strauss II - Im Sturmschritt!, Polka schnell.mkv
Format : Matroska
File size : 108 MiB
Duration : 4mn 2s
Overall bit rate : 3 731 Kbps
Encoded date : UTC 2009-09-12 16:27:21
Writing application : mkvmerge v2.9.7 ('Tenderness') built on Jul 1 2009 18:43:35
Writing library : libebml v0.7.7 + libmatroska v0.8.1

Video
ID : 1
Format : AVC
Format/Info : Advanced Video Codec
Format profile : [email protected]
Format settings, CABAC : Yes
Format settings, ReFrames : 16 frames
Muxing mode : Container [email protected]
Codec ID : V_MPEG4/ISO/AVC
Duration : 4mn 2s
Bit rate : 3 209 Kbps
Width : 688 pixels
Height : 464 pixels
Display aspect ratio : 16:9
Original display aspect ratio : 16:9
Frame rate : 29.970 fps
Resolution : 24 bits
Colorimetry : 4:2:0
Scan type : Progressive
Bits/(Pixel*Frame) : 0.335
Stream size : 92.6 MiB (86%)
Title : 18 Johann Strauss II - Im Sturmschritt!, Polka schnell.mp4
Writing library : x264 core 68 r1183M f21daff
Encoding settings : cabac=1 / ref=16 / deblock=1:-1:-1 / analyse=0x3:0x113 / me=tesa / subme=9 / psy_rd=1.0:0.0 / mixed_ref=1 / me_range=32 / chroma_me=1 / trellis=2 / 8x8dct=1 / cqm=0 / deadzone=21,11 / chroma_qp_offset=-2 / threads=1 / nr=0 / decimate=0 / mbaff=0 / bframes=4 / b_pyramid=1 / b_adapt=2 / b_bias=0 / direct=1 / wpredb=1 / keyint=250 / keyint_min=25 / scenecut=40 / rc=crf / crf=18.0 / qcomp=0.60 / qpmin=10 / qpmax=51 / qpstep=4 / ip_ratio=1.40 / pb_ratio=1.30 / aq=1:1.00

Audio
ID : 2
Format : AC-3
Format/Info : Audio Coding 3
Codec ID : A_AC3
Duration : 4mn 2s
Bit rate mode : Constant
Bit rate : 448 Kbps
Channel(s) : 5 channels
Channel positions : Front: L C R, Surround: L R
Sampling rate : 48.0 KHz
Stream size : 12.9 MiB (12%)
Title : 18 Johann Strauss II - Im Sturmschritt!, Polka schnell.ac3

General
Complete name : E:\Music_Bank.Jm\Riccardo Muti - 2004 New Year Concert by Vien Philharmonic Orchestra\19 Johann Strauss I - Indianer, Galopp.mkv
Format : Matroska
File size : 75.1 MiB
Duration : 3mn 2s
Overall bit rate : 3 462 Kbps
Encoded date : UTC 2009-09-12 16:44:42
Writing application : mkvmerge v2.9.7 ('Tenderness') built on Jul 1 2009 18:43:35
Writing library : libebml v0.7.7 + libmatroska v0.8.1

Video
ID : 1
Format : AVC
Format/Info : Advanced Video Codec
Format profile : [email protected]
Format settings, CABAC : Yes
Format settings, ReFrames : 16 frames
Muxing mode : Container [email protected]
Codec ID : V_MPEG4/ISO/AVC
Duration : 3mn 1s
Bit rate : 2 945 Kbps
Width : 688 pixels
Height : 464 pixels
Display aspect ratio : 16:9
Original display aspect ratio : 16:9
Frame rate : 29.970 fps
Resolution : 24 bits
Colorimetry : 4:2:0
Scan type : Progressive
Bits/(Pixel*Frame) : 0.308
Stream size : 63.9 MiB (85%)
Title : 19 Johann Strauss I - Indianer, Galopp.mp4
Writing library : x264 core 68 r1183M f21daff
Encoding settings : cabac=1 / ref=16 / deblock=1:-1:-1 / analyse=0x3:0x113 / me=tesa / subme=9 / psy_rd=1.0:0

related torrents

Torrent name

health leech seeds Size
 


comments (0)

Main Menu