Drama

The Pumpkin Eater (1964) Anne Bancroft Eng

  • Download 5x Faster
  • Download torrent
  • Direct Download
  • Rate this torrent +  |  -
The Pumpkin Eater (1964) Anne Bancroft Eng

Free and Direct Download with Usenet 300GB+ free


Torrent info

Name:The Pumpkin Eater (1964) Anne Bancroft Eng

Total Size: 954.84 MB

Magnet: Magnet Link

Seeds: 1

Leechers: 2

Stream: Watch Online @ Movie4u

Last Updated: 2010-09-23 04:13:40 (Update Now)

Torrent added: 2009-09-13 04:33:24




Torrent Files List


FAQ README.txt (Size: 954.84 MB) (Files: 3)

 FAQ README.txt

4.45 KB

 The Pumpkin Eater (Jack Clayton, 1964).avi

954.84 MB

 Torrent downloaded from Demonoid.com.txt

0.05 KB
 

Announce URL: http://tracker.publicbt.com/announce

Torrent description

Anne Bancroft stars as a restless, twice-married British woman with six children, whose third husband is a fledgling screenwriter (Peter Finch). When success spins Finch's head around, he begins to dally with women other than his wife. Meanwhile, Bancroft is forced to stay home and play "domestic goddess", a role for which she is utterly unsuited. After suffering a nervous breakdown, Bancroft wanders the streets of London in a vain search for a sympathetic ear. She eventually comes to grips with the situation at hand--but as in most of playwright Harold Pinter's works, the characters of The Pumpkin Eater are just as unfulfilled in the last scene as they were in the first. Anne Bancroft won a Cannes Film Festival award for her performance in this film.



http://www.imdb.com/title/tt0058500/



Awards:
Nominated for Oscar. Another 6 wins & 5 nominations



Director:
Jack Clayton



Anne Bancroft ... Jo Armitage

Peter Finch ... Jake Armitage

James Mason ... Bob Conway
Janine Gray ... Beth Conway
Cedric Hardwicke... Mr. James - Jo's father



Video
Format : MPEG-4 Visual
Format profile : Streaming [email protected]
Format settings, BVOP : Yes
Format settings, QPel : No
Format settings, GMC : No warppoints
Format settings, Matrix : Custom
Codec ID : XVID
Codec ID/Hint : XviD
Duration : 1h 45mn
Bit rate : 1 132 Kbps
Width : 704 pixels
Height : 400 pixels
Display aspect ratio : 16/9
Frame rate : 25.000 fps
Resolution : 24 bits
Colorimetry : 4:2:0
Scan type : Progressive
Bits/(Pixel*Frame) : 0.161
Stream size : 853 MiB (89%)
Writing library : XviD 50
Audio
Format : MPEG Audio
Format version : Version 1
Format profile : Layer 3
Codec ID : 55
Codec ID/Hint : MP3
Duration : 1h 45mn
Bit rate mode : Constant
Bit rate : 128 Kbps
Minimum bit rate : 128 Kbps
Channel(s) : 2 channels
Sampling rate : 48.0 KHz
Resolution : 16 bits
Stream size : 96.4 MiB (10%)
Alignment : Aligned on interleaves
Interleave, duration : 80 ms (2.00 video frames)
Interleave, preload duration : 504 ms
Writing library : LAME3.98r
Encoding settings : CBR
Language : English

related torrents

Torrent name

health leech seeds Size
 

comments (0)

Main Menu