Comedy

The Hang Over DVDSCR Xvid MAXSPEED

  • Download 5x Faster
  • Download torrent
  • Direct Download
  • Rate this torrent +  |  -
The Hang Over DVDSCR Xvid MAXSPEED

Free and Direct Download with Usenet.nl 300GB+ free


Torrent info

Name:The Hang Over DVDSCR Xvid MAXSPEED

Total Size: 744.92 MB

Magnet: Magnet Link

Seeds: 0

Leechers: 0

Stream: Watch Online @ Movie4u

Last Updated: 2010-11-30 01:25:38 (Update Now)

Torrent added: 2009-09-13 02:34:26





Torrent Files List


Subtitles (Size: 744.92 MB) (Files: 7)

 Subtitles

  HAng-Over.sub

3.49 MB

  the Hang-over.idx

60.24 KB

 The Hang-Over[2009] DVDR-MAXSPEED.avi

740.20 MB

 the hangover Screenshot.png

1.06 MB

 hangover wall.jpg

116.98 KB

 The hangover.nfo

4.96 KB

 demonoid.TXT

0.04 KB
 

Announce URL: http://tracker.publicbt.com/announce

Torrent description

Release Title: The Hangover 2009
Release Date: 16 June 2009
Release Length: 01:34:10

Angelenos Doug Billings and Tracy Garner are about to get married.
Two days before the wedding, the four men in the wedding party - Doug, Doug's two best buddies Phil Wenneck and
Stu Price, and Tracy's brother Alan Garner - hop into Tracy's father's beloved Mercedes convertible for a 24-hour
stag party to Las Vegas. Phil, a married high school teacher, has the same maturity level as his students when
he's with his pals. Stu, a dentist, is worried about everything, especially what his controlling girlfriend
Melissa thinks. Because she disapproves of traditional male bonding rituals, Phil has to lie to her about the
stag, he telling her that they are going on a wine tasting tour in the Napa Valley. Regardless, he intends on
eventually marrying her, against the advice and wishes of his friends. And Alan seems to be unaware of what are
considered the social graces of the western world. The morning after their arrival in Las Vegas, they awaken in
their hotel suite each with the worst hangover. None remembers what happened in the past twelve or so hours.
The suite is in shambles. And certain things are in the suite that shouldn't be, and certain things that should
be in the suite are missing. Probably the most important in the latter category is Doug. As Phil, Stu and Alan
try to find Doug using only what little pieces of information they have at hand, they go on a journey of
discovery of how certain things got into the suite and what happened to the missing items. However they are on
a race for time as if they can't find Doug in the next few hours, they are going to have to explain to Tracy
why they are not yet back in Los Angeles. And even worse, they may not find Doug at all before the wedding


Bradley Cooper ... Phil Wenneck
Ed Helms ... Stu Price
Zach Galifianakis ... Alan Garner
Justin Bartha ... Doug Billings
Heather Graham ... Jade
Sasha Barrese ... Tracy Garner
Jeffrey Tambor ... Sid Garner
Ken Jeong ... Mr. Chow
Rachael Harris ... Melissa
Mike Tyson ... Himself
Mike Epps ... Black Doug
Jernard Burks ... Leonard
Rob Riggle ... Officer Franklin
Cleo King ... Officer Garden
Bryan Callen ... Eddie Palermo

Genre: Comedy
Language: English

Awards:
Original Source: Russian TS + AUDIO TS (from FATAL Thx m8 )
Total Size: 889 MB (911,192 KB / 933,061,156 bytes)

Type : Movie
Format : AVI
File Size : 728 Mb
Duration : 01:37:53
Language : English
Source : DvDScR
Subtitles : None
Genre : Comedy
IMDB Link : http://www.imdb.com/title/tt1119646/
IMDB Rating : 8.3/10
IMDB Votes : 39,874 Votes

Format : MPEG-4 Visual
Format profile : [email protected]
Format settings, BVOP : No
Format settings, QPel : No
Format settings, GMC : No warppoints
Format settings, Matrix : Default (H.263)
Codec ID : XVID
Codec ID/Hint : XviD
Duration : 1h 37mn
Bit rate : 904 Kbps
Width : 672 pixels
Height : 272 pixels
Display aspect ratio : 2.471
Frame rate : 23.976 fps
Resolution : 24 bits
Colorimetry : 4:2:0
Scan type : Progressive
Bits/(Pixel*Frame) : 0.206
Stream size : 633 MiB (87%)
Writing library : XviD 1.2.0.

Format : MPEG Audio
Format version : Version 1
Format profile : Layer 3
Codec ID : 55
Codec ID/Hint : MP3
Duration : 1h 37mn
Bit rate mode : Constant
Bit rate : 128 Kbps
Minimum bit rate : 128 Kbps
Channel(s) : 2 channels
Sampling rate : 48.0 KHz
Resolution : 16 bits
Stream size : 89.6 MiB (12%)
Alignment : Aligned on interleaves
Interleave, duration : 42 ms (1.00 video frame)
Interleave, preload duration : 504 ms
Writing library : LAME3.97
Encoding settings : CBR



related torrents

Torrent name

health leech seeds Size
 

comments (0)

Main Menu