WWE - Wrestling

WWE TNA IMPACT 10 09 2009 HDTV XviD

  • Download 5x Faster
  • Download torrent
  • Direct Download
  • Rate this torrent +  |  -
WWE TNA IMPACT 10 09 2009 HDTV XviD

Download FREE And Anonymously


Torrent info

Name:WWE TNA IMPACT 10 09 2009 HDTV XviD

Total Size: 691.30 MB

Magnet: Magnet Link

Seeds: 0

Leechers: 0

Stream: Watch Full Movie @ Movie4u

Last Updated: 2015-09-30 10:32:56 (Update Now)

Torrent added: 2009-09-12 23:36:36



VPN For Torrents

Torrent Files List


TNA.Impact.2009.09.10.HDTV.XviD-y2jcodes.avi (Size: 691.30 MB) (Files: 1)

 TNA.Impact.2009.09.10.HDTV.XviD-y2jcodes.avi

691.30 MB
 

tracker

leech seeds
 

Torrent description

General
Complete name : TNA.Impact.2009.09.10.HDTV.XviD-y2jcodes.avi
Format : AVI
Format/Info : Audio Video Interleave
File size : 691 MiB
Duration : 1h 22mn
Overall bit rate : 1 175 Kbps

Video
Format : MPEG-4 Visual
Format profile : Streaming [email protected]
Format settings, BVOP : Yes
Format settings, QPel : No
Format settings, GMC : No warppoints
Format settings, Matrix : Default
Codec ID : XVID
Codec ID/Hint : XviD
Duration : 1h 21mn
Bit rate : 1 041 Kbps
Width : 624 pixels
Height : 352 pixels
Display aspect ratio : 16/9
Frame rate : 29.970 fps
Resolution : 24 bits
Colorimetry : 4:2:0
Scan type : Progressive
Bits/(Pixel*Frame) : 0.158
Stream size : 610 MiB (88%)
Writing library : XviD 1.2.1 (UTC 2008-12-04)

Audio
Format : MPEG Audio
Format version : Version 1
Format profile : Layer 3
Codec ID : 55
Codec ID/Hint : MP3
Duration : 1h 22mn
Bit rate mode : Constant
Bit rate : 128 Kbps
Minimum bit rate : 128 Kbps
Channel(s) : 2 channels
Sampling rate : 48.0 KHz
Resolution : 16 bits
Stream size : 75.0 MiB (11%)
Alignment : Split accross interleaves
Interleave, duration : 33 ms (1.00 video frame)
Writing library : LAME3.98r
Encoding settings : CBR

related torrents

Torrent name

health leech seeds Size
 


comments (0)

Main Menu

 

script data-cfasync="false" src="//d2ghscazvn398x.cloudfront.net/?cshgd=690275">