Action

Public Enimies(2009) R5 H624 AAC SecretMyth (Kingdom Release)

  • Download 5x Faster
  • Download torrent
  • Direct Download
  • Rate this torrent +  |  -
Public Enimies(2009) R5 H624 AAC SecretMyth (Kingdom Release)

Free and Direct Download with Usenet 300GB+ free


Torrent info

Name:Public Enimies(2009) R5 H624 AAC SecretMyth (Kingdom Release)

Total Size: 744.11 MB

Magnet: Magnet Link

Seeds: 1

Leechers: 2

Stream: Watch Online @ Movie4u

Last Updated: 2011-01-01 00:23:33 (Update Now)

Torrent added: 2009-09-12 23:36:01




Torrent Files List


Subtitles (Size: 744.11 MB) (Files: 7)

 Subtitles

  Dances.With.Wolves-FLAWL3SS.sub

3.49 MB

  Public.sub

60.24 KB

 Public Enimies(2009) R5 H624 AAC-SecretMyth (Kingdom-Release).avi

740.20 MB

 public enemies wall.jpg

253.09 KB

 public screenshot.jpg

116.10 KB

 public enemies.nfo

3.88 KB

 demonoid.TXT

0.04 KB
 

Announce URL: http://tracker.openbittorrent.com:80/announce

Torrent description

Released Tittle: Public Enemies 2009
Release date: July 1, 2009
Running time: 139 min



This is the story of the last few years of the notorious bank robber John
Dillinger. He loved what he did and could imagine little else that would make
him happier. Living openly in 1930s Chicago, he had the run of the city with
little fear of reprisals from the authorities. It's there that he meets Billie
Frechette with whom he falls deeply in love. In parallel we meet Melvin Purvis,
the FBI agent who would eventually track Dillinger down. The FBI was is in its
early days and Director J. Edgar Hoover was keen to promote the clean cut image
that so dominated the organization through his lifetime. Purvis realizes that if
he is going to get Dillinger, he will have to use street tactics and imports
appropriate men with police training. Dillinger is eventually betrayed by an
acquaintance who tells the authorities just where to find him on a given night.



Directed by Michael Mann
Produced by Michael Mann
Kevin Misher

Written by Screenplay:
Ronan Bennett
Ann Biderman
Michael Mann

Book: Bryan Burrough

Starring
Johnny Depp
Christian Bale
Marion Cotillard
Billy Crudup
Stephen Dorff
Lili Taylor
Channing Tatum
Emilie de Ravin

Music by
Elliot Goldenthal

Cinematography
Dante Spinotti

Editing by
Paul Rubell
Jeffrey Ford



Country
United States

Language
English

Budget
$80 million

Gross revenue
$173,083,511


Format : AVI
Format/Info : Audio Video Interleave
File size : 1.34 GiB
Duration : 2h 10mn
Overall bit rate : 1 465 Kbps
Writing library : TMPGEnc 4.0 XPress Version. 4.6.2.266

Video
Format : MPEG-4 Visual
Format profile : Streaming [email protected]
Format settings, BVOP : No
Format settings, QPel : No
Format settings, GMC : No warppoints
Format settings, Matrix : Custom
Codec ID : XVID
Codec ID/Hint : XviD
Duration : 2h 10mn
Bit rate : 1 325 Kbps
Width : 640 pixels
Height : 240 pixels
Display aspect ratio : 2.667
Frame rate : 23.976 fps
Resolution : 24 bits
Colorimetry : 4:2:0
Scan type : Progressive
Bits/(Pixel*Frame) : 0.360
Stream size : 1.21 GiB (90%)
Writing library : XviD 1.1.2 (UTC 2006-11-01)

Audio
Format : MPEG Audio
Format version : Version 1
Format profile : Layer 3
Codec ID : 55
Codec ID/Hint : MP3
Duration : 2h 10mn
Bit rate mode : Constant
Bit rate : 128 Kbps
Channel(s) : 2 channels
Sampling rate : 48.0 KHz
Resolution : 16 bits
Stream size : 120 MiB (9%)
Alignment : Aligned on interleaves
Interleave, duration : 42 ms (1.00 video frame)
Interleave, preload duration : 408 ms

related torrents

Torrent name

health leech seeds Size
 

comments (0)

Main Menu