Comedy

Year One UNRATED avi and 3gp copie

  • Download 5x Faster
  • Download torrent
  • Direct Download
  • Rate this torrent +  |  -
Year One UNRATED avi and 3gp copie

Anonymous and Free Direct Download


Torrent info

Name:Year One UNRATED avi and 3gp copie

Total Size: 1.05 GB

Magnet: Magnet Link

Seeds: 0

Leechers: 0

Stream: Watch Online @ Movie4u

Last Updated: 2010-12-02 22:12:06 (Update Now)

Torrent added: 2009-09-12 21:40:21



VPN For Torrents

Torrent Files List


year one.avi (Size: 1.05 GB) (Files: 2)

 year one.avi

694.63 MB

 year one.3gp

375.69 MB
 

Announce URL: http://tracker.openbittorrent.com:80/announce

Torrent description

YEAR ONE AVI AND 3GP COPIE FOR CELL PHONES WORKS ONE ENV 2 3 AND ENV TOUCH
!!!!!!!!!!!!!!!!!!!!!!!!PLEASE SEED !!!!!!!!!!!!!!!!!!!!!!!!!!!!!!!!!!!!!!
Year.One.UNRATED\year one.3gp
Format : MPEG-4
Format profile : 3GPP Media Release 4
Codec ID : 3gp4
File size : 376 MiB
Duration : 1h 39mn
Overall bit rate : 528 Kbps
Encoded date : UTC 1970-01-01 00:00:00
Tagged date : UTC 1970-01-01 00:00:00

Video
ID : 1
Format : MPEG-4 Visual
Format profile : [email protected]
Format settings, BVOP : No
Format settings, QPel : No
Format settings, GMC : No warppoints
Format settings, Matrix : Default (H.263)
Codec ID : 20
Duration : 1h 39mn
Bit rate mode : Variable
Bit rate : 512 Kbps
Width : 320 pixels
Height : 240 pixels
Display aspect ratio : 1.850
Frame rate mode : Variable
Frame rate : 23.976 fps
Minimum frame rate : 23.975 fps
Maximum frame rate : 959.000 fps
Resolution : 24 bits
Colorimetry : 4:2:0
Scan type : Progressive
Bits/(Pixel*Frame) : 0.278
Stream size : 364 MiB (97%)
Writing library : Lavc51.57.2
Encoded date : UTC 1970-01-01 00:00:00
Tagged date : UTC 1970-01-01 00:00:00

Audio
ID : 2
Format : AMR
Format/Info : Adaptive Multi-Rate
Format profile : Narrow band
Codec ID : samr
Duration : 1h 39mn
Bit rate mode : Constant
Bit rate : 12.8 Kbps
Channel(s) : 1 channel
Sampling rate : 8 000 Hz
Resolution : 16 bits
Stream size : 9.11 MiB (2%)
Writing library : FFMpeg
Encoded date : UTC 1970-01-01 00:00:00
Tagged date : UTC 1970-01-01 00:00:00

Year.One.UNRATED\year one.avi
Format : AVI
Format/Info : Audio Video Interleave
File size : 695 MiB
Duration : 1h 39mn
Overall bit rate : 976 Kbps
Writing application : VirtualDubMod 1.5.10.2 (build 2540/release)
Writing library : VirtualDubMod build 2540/release

Video
ID : 0
Format : MPEG-4 Visual
Format profile : [email protected]
Format settings, BVOP : Yes
Format settings, QPel : No
Format settings, GMC : No warppoints
Format settings, Matrix : Default (H.263)
Codec ID : XVID
Codec ID/Hint : XviD
Duration : 1h 39mn
Bit rate : 831 Kbps
Width : 592 pixels
Height : 320 pixels
Display aspect ratio : 1.850
Frame rate : 23.976 fps
Resolution : 24 bits
Colorimetry : 4:2:0
Scan type : Progressive
Bits/(Pixel*Frame) : 0.183
Stream size : 591 MiB (85%)
Writing library : XviD 1.2.1 (UTC 2008-12-04)

Audio
ID : 1
Format : MPEG Audio
Format version : Version 1
Format profile : Layer 3
Codec ID : 55
Codec ID/Hint : MP3
Duration : 1h 39mn
Bit rate mode : Variable
Bit rate : 132 Kbps
Nominal bit rate : 128 Kbps
Channel(s) : 2 channels
Sampling rate : 48.0 KHz
Resolution : 16 bits
Stream size : 94.1 MiB (14%)
Alignment : Aligned on interleaves
Interleave, duration : 24 ms (0.58 video frame)
Interleave, preload duration : 139 ms
Writing library : LAME3.90.
Encoding settings : -m j -V 4 -q 2 -lowpass 17.6 --abr 128

related torrents

Torrent name

health leech seeds Size
 


comments (0)

Main Menu