Action

Hitman [2007] 1264x528 HD Mp4 X264 AAC 5 1 ch 3Li

  • Download 5x Faster
  • Download torrent
  • Direct Download
  • Rate this torrent +  |  -
Hitman [2007] 1264x528 HD Mp4 X264 AAC 5 1 ch 3Li

Free and Direct Download with Usenet.nl 300GB+ free


Torrent info

Name:Hitman [2007] 1264x528 HD Mp4 X264 AAC 5 1 ch 3Li

Total Size: 1.44 GB

Magnet: Magnet Link

Seeds: 1

Leechers: 0

Stream: Watch Online @ Movie4u

Last Updated: 2011-07-05 17:21:07 (Update Now)

Torrent added: 2009-09-12 20:36:22





Torrent Files List


Hitman.jpg (Size: 1.44 GB) (Files: 16)

 Hitman.jpg

194.88 KB

 Hitman.mp4

1.44 GB

 Hitman.mp4.txt

6.37 KB

 Hitman.srt

60.40 KB

 snapshot20090910142537.jpg

59.97 KB

 snapshot20090910142842.jpg

77.54 KB

 snapshot20090910143008.jpg

121.96 KB

 snapshot20090910143054.jpg

67.87 KB

 snapshot20090910143123.jpg

96.41 KB

 snapshot20090910143217.jpg

57.55 KB

 snapshot20090910143233.jpg

71.74 KB

 snapshot20090910143536.jpg

74.55 KB

 snapshot20090910143729.jpg

70.09 KB

 snapshot20090910143950.jpg

78.47 KB

 Torrent downloaded from Demonoid.com.txt

0.05 KB

 tracked_by_h33t_com.txt

0.02 KB
 

Announce URL: http://tracker.ilibr.org:6969/announce

Torrent description

General
Complete name : Hitman.mp4
Format : MPEG-4
Format profile : Base Media
Codec ID : isom
File size : 1.44 GiB
Duration : 1h 34mn
Overall bit rate : 2 187 Kbps
Movie name : Hitman By 3Li
Genre : Action
Encoded date : UTC 2009-09-09 10:17:06
Tagged date : UTC 2009-09-09 10:17:06
Writing application : Yamb 2.1.0.0 [http://yamb.unite-video.com]
Comment : By 3Li

Video
ID : 1
Format : AVC
Format/Info : Advanced Video Codec
Format profile : [email protected]
Format settings, CABAC : Yes
Format settings, ReFrames : 3 frames
Codec ID : avc1
Codec ID/Info : Advanced Video Coding
Duration : 1h 34mn
Bit rate mode : Variable
Bit rate : 1 993 Kbps
Maximum bit rate : 7 590 Kbps
Width : 1 264 pixels
Height : 528 pixels
Display aspect ratio : 2.35:1
Frame rate mode : Constant
Frame rate : 23.976 fps
Resolution : 24 bits
Colorimetry : 4:2:0
Scan type : Progressive
Bits/(Pixel*Frame) : 0.125
Stream size : 1.31 GiB (91%)
Writing library : x264 core 68 r1183M f21daff
Encoding settings : cabac=1 / ref=3 / deblock=1:0:0 / analyse=0x1:0 / me=hex / subme=6 / psy_rd=1.0:0.0 / mixed_ref=1 / me_range=16 / chroma_me=1 / trellis=1 / 8x8dct=0 / cqm=0 / deadzone=21,11 / chroma_qp_offset=-2 / threads=3 / nr=0 / decimate=1 / mbaff=0 / bframes=2 / b_pyramid=1 / b_adapt=1 / b_bias=0 / direct=2 / wpredb=0 / keyint=250 / keyint_min=25 / scenecut=40 / rc=2pass / bitrate=1993 / ratetol=1.0 / qcomp=0.60 / qpmin=10 / qpmax=51 / qpstep=4 / cplxblur=20.0 / qblur=0.5 / ip_ratio=1.40 / pb_ratio=1.30 / aq=1:1.00
Encoded date : UTC 2009-09-09 06:26:34
Tagged date : UTC 2009-09-09 10:18:41

Audio
ID : 2
Format : AAC
Format/Info : Advanced Audio Codec
Format version : Version 4
Format profile : LC
Format settings, SBR : No
Codec ID : 40
Duration : 1h 34mn
Bit rate mode : Variable
Bit rate : 192 Kbps
Maximum bit rate : 306 Kbps
Channel(s) : 6 channels
Channel positions : Front: L C R, Rear: L R, LFE
Sampling rate : 48.0 KHz
Resolution : 16 bits
Stream size : 128 MiB (9%)
Encoded date : UTC 2009-09-09 10:18:04
Tagged date : UTC 2009-09-09 10:18:41

related torrents

Torrent name

health leech seeds Size
 

comments (0)

Main Menu