Adventure

D E B S {2004} {DVDRip XviD BY NoGrp} avi

  • Download 5x Faster
  • Download torrent
  • Direct Download
  • Rate this torrent +  |  -
D E B S {2004} {DVDRip XviD BY NoGrp} avi

Anonymous and Free Direct Download


Torrent info

Name:D E B S {2004} {DVDRip XviD BY NoGrp} avi

Total Size: 701.37 MB

Magnet: Magnet Link

Seeds: 5

Leechers: 7

Stream: Watch Online @ Movie4u

Last Updated: 0000-00-00 00:00:00 (Update Now)

Torrent added: 2009-09-12 17:37:52



VPN For Torrents

Torrent Files List


D.E.B.S. {2004} - {DVDRip-XviD BY NoGrp}.avi (Size: 701.37 MB) (Files: 1)

 D.E.B.S. {2004} - {DVDRip-XviD BY NoGrp}.avi

701.37 MB
 

Announce URL: http://open.tracker.thepiratebay.org/announce

Torrent description

D.E.B.S. {2004} - {DVDRip-XviD BY NoGrp}.avi
General
Complete name : D.E.B.S. {2004} - {DVDRip-XviD BY NoGrp}.avi
Format : AVI
Format/Info : Audio Video Interleave
File size : 701 MiB
Duration : 1h 31mn
Overall bit rate : 1 070 Kbps
Writing application : Nandub v1.0rc2
Writing library : Nandub build 1852/release
Video
Format : MPEG-4 Visual
Format profile : [email protected]
Format settings, BVOP : Yes
Format settings, QPel : No
Format settings, GMC : No warppoints
Format settings, Matrix : Default
Muxing mode : Packed bitstream
Codec ID : XVID
Codec ID/Hint : XviD
Duration : 1h 31mn
Bit rate : 902 Kbps
Width : 640 pixels
Height : 272 pixels
Display aspect ratio : 2.35
Frame rate : 23.976 fps
Resolution : 24 bits
Colorimetry : 4:2:0
Scan type : Progressive
Bits/(Pixel*Frame) : 0.216
Stream size : 591 MiB (84%)
Writing library : XviD 1.1.0 Beta2 (UTC 2005-04-04)
Audio
Format : MPEG Audio
Format version : Version 1
Format profile : Layer 3
Codec ID : 55
Codec ID/Hint : MP3
Duration : 1h 31mn
Bit rate mode : Variable
Bit rate : 155 Kbps
Minimum bit rate : 64.0 Kbps
Channel(s) : 2 channels
Sampling rate : 48.0 KHz
Resolution : 16 bits
Stream size : 102 MiB (14%)
Alignment : Aligned on interleaves
Interleave, duration : 24 ms (0.58 video frame)
Interleave, preload duration : 116 ms
Writing library : LAME3.93
Encoding settings : VBR (mtrh)

related torrents

Torrent name

health leech seeds Size
 


comments (0)

Main Menu