Comedy

Naked in New York (1993) Eric Stoltz DVDrip (Gay interest)_Kuth

  • Download 5x Faster
  • Download torrent
  • Direct Download
  • Rate this torrent +  |  -

Torrent info

Name:Naked in New York (1993) Eric Stoltz DVDrip (Gay interest)_Kuth

Total Size: 698.45 MB

Magnet: Magnet Link

Seeds: 0

Leechers: 0

Stream: Watch Online @ Movie4u

Last Updated: 0000-00-00 00:00:00 (Update Now)

Torrent added: 2009-09-12 14:35:41



VPN For Torrents

Torrent Files List


Info about this release.txt (Size: 698.45 MB) (Files: 2)

 Info about this release.txt

4.59 KB

 Naked in New York (1993) Eric Stoltz DVDrip_Kuth.avi

698.45 MB
 

Announce URL:

Torrent description

Naked in New York (1993) Eric Stoltz DVDrip (Gay interest)

http://www.imdb.com/title/tt0110623/

With Mary-Louise Parker, Ralph Macchio, Tony Curtis, Kathleen Turner and Timothy Dalton. Executive producer: Martin Scorsese.

Charming comedy drama with Eric Stoltz (The Fly II) as an aspiring writer who has to learn his trade the hard way, including perhaps being seduced by actress Kathleen Turner. Including Ralph Macchio in one of his few major parts outside the Karate Kid series, this time as a gay friend.

I could not find a torrent for this film anywhere, so I bought it and made a rip.

Original fullscreen, DVDrip XviD 2-pass 608x432, really great stereo sound AC3.
Burn tested, runs well in both my standalone DivX players.

MediaInfo analysis:
Format/Info : Audio Video Interleave
File size : 698 MiB
Duration : 1h 31mn
Overal bit rate : 1071 Kbps

Video
Format : MPEG-4 Visual
Format profile : Streaming [email protected]
Format settings, BVOP : Yes
Format settings, QPel : No
Format settings, GMC : No warppoints
Format settings, Matrix : Default
Muxing mode : Packet Bitstream
Codec ID : XVID
Codec ID/Hint : XviD
Duration : 1h 31mn
Bit rate : 934 Kbps
Width : 672 pixels
Height : 496 pixels
Display aspect ratio : 4/3
Frame rate : 23.976 fps
Resolution : 8 bits
Colorimetry : 4:2:0
Scan type : Progressive
Bits/(Pixel*Frame) : 0.117
Stream size : 609 MiB
Writing library : XviD 1.2.0.dev47 (UTC 2006-11-01)

Audio
Format : MPEG Audio
Format version : Version 1
Format profile : Layer 3
Codec ID : 55
Codec ID/Hint : MP3
Duration : 1h 31mn
Bit rate mode : Constant
Bit rate : 128 Kbps
Minimum bit rate : 128 Kbps
Channel(s) : 2 channels
Sampling rate : 48.0 KHz
Resolution : 16 bits
Stream size : 83.5 MiB
Writing library : LAME3.97
Encoding settings : CBR

Source: NTSC Retail

Have a look at my other torrents at
http://thepiratebay.org/user/Kuthumi/

related torrents

Torrent name

health leech seeds Size
 


comments (0)

Main Menu