Funny clips

Banana Split sat12sep09 PHILIPPINES tvrip (TAGALOG) [tukmol101]

  • Download 5x Faster
  • Download torrent
  • Direct Download
  • Rate this torrent +  |  -
Banana Split sat12sep09 PHILIPPINES tvrip (TAGALOG) [tukmol101]

Anonymous and Direct Download 300GB+ free


Torrent info

Name:Banana Split sat12sep09 PHILIPPINES tvrip (TAGALOG) [tukmol101]

Total Size: 241.92 MB

Magnet: Magnet Link

Seeds: 0

Leechers: 2

Stream: Watch Online @ Movie4u

Last Updated: 2016-11-09 10:23:51 (Update Now)

Torrent added: 2009-09-12 12:38:27




Torrent Files List


Banana Split.avi (Size: 241.92 MB) (Files: 3)

 Banana Split.avi

241.92 MB

 READ ME.txt

2.37 KB

 Torrent downloaded from Demonoid.com.txt

0.05 KB
 

tracker

leech seeds
 

Torrent description

kung gusto nyo MMK i aupload ko. search lang MMK18
MAY MISSING +-3MIN SA NNNN AT 1 MIN SA ISANG JOKE SEGMENT. PASENSYA.
General
Complete name : Banana Split.avi
Format : AVI
Format/Info : Audio Video Interleave
File size : 242 MiB
Duration : 25mn 57s
Overall bit rate : 1 303 Kbps
Writing application : VirtualDubMod 1.5.4.1 (build 2178/release)
Writing library : VirtualDubMod build 2178/release

Video
ID : 0
Format : MPEG-4 Visual
Format profile : [email protected]
Format settings, BVOP : Yes
Format settings, QPel : No
Format settings, GMC : No warppoints
Format settings, Matrix : Default (H.263)
Muxing mode : Packed bitstream
Codec ID : XVID
Codec ID/Hint : XviD
Duration : 25mn 57s
Bit rate : 1 184 Kbps
Width : 608 pixels
Height : 464 pixels
Display aspect ratio : 4:3
Frame rate : 29.970 fps
Resolution : 24 bits
Colorimetry : 4:2:0
Scan type : Progressive
Bits/(Pixel*Frame) : 0.140
Stream size : 220 MiB (91%)
Writing library : XviD 1.2.1 (UTC 2008-12-04)

Audio
ID : 1
Format : MPEG Audio
Format version : Version 1
Format profile : Layer 3
Codec ID : 55
Codec ID/Hint : MP3
Duration : 25mn 57s
Bit rate mode : Variable
Bit rate : 105 Kbps
Nominal bit rate : 128 Kbps
Channel(s) : 2 channels
Sampling rate : 48.0 KHz
Resolution : 16 bits
Stream size : 19.4 MiB (8%)
Alignment : Aligned on interleaves
Interleave, duration : 24 ms (0.72 video frame)
Interleave, preload duration : 565 ms
Writing library : LAME3.98r
Encoding settings : -m j -V 4 -q 2 -lowpass 17 --abr 128

related torrents

Torrent name

health leech seeds Size
 


comments (0)

Main Menu