Adventure

2012 Doomsday[2008]DvDrip Avi Xvid & Covers GuySmiley[

  • Download 5x Faster
  • Download torrent
  • Direct Download
  • Rate this torrent +  |  -
2012 Doomsday[2008]DvDrip Avi Xvid & Covers GuySmiley[

Free and Direct Download with Usenet 300GB+ free


Torrent info

Name:2012 Doomsday[2008]DvDrip Avi Xvid & Covers GuySmiley[

Total Size: 704.03 MB

Magnet: Magnet Link

Seeds: 0

Leechers: 0

Stream: Watch Online @ Movie4u

Last Updated: 0000-00-00 00:00:00 (Update Now)

Torrent added: 2009-09-12 07:38:13




Torrent Files List


2012 Doomsday[2008]DvDrip Avi Xvid & Covers -GuySmiley.nfo (Size: 704.03 MB) (Files: 52)

 2012 Doomsday[2008]DvDrip Avi Xvid & Covers -GuySmiley.nfo

2.46 KB

 2012 Doomsday[2008]DvDrip Avi Xvid & Covers -GuySmiley.r00

14.31 MB

 2012 Doomsday[2008]DvDrip Avi Xvid & Covers -GuySmiley.r01

14.31 MB

 2012 Doomsday[2008]DvDrip Avi Xvid & Covers -GuySmiley.r02

14.31 MB

 2012 Doomsday[2008]DvDrip Avi Xvid & Covers -GuySmiley.r03

14.31 MB

 2012 Doomsday[2008]DvDrip Avi Xvid & Covers -GuySmiley.r04

14.31 MB

 2012 Doomsday[2008]DvDrip Avi Xvid & Covers -GuySmiley.r05

14.31 MB

 2012 Doomsday[2008]DvDrip Avi Xvid & Covers -GuySmiley.r06

14.31 MB

 2012 Doomsday[2008]DvDrip Avi Xvid & Covers -GuySmiley.r07

14.31 MB

 2012 Doomsday[2008]DvDrip Avi Xvid & Covers -GuySmiley.r08

14.31 MB

 2012 Doomsday[2008]DvDrip Avi Xvid & Covers -GuySmiley.r09

14.31 MB

 2012 Doomsday[2008]DvDrip Avi Xvid & Covers -GuySmiley.r10

14.31 MB

 2012 Doomsday[2008]DvDrip Avi Xvid & Covers -GuySmiley.r11

14.31 MB

 2012 Doomsday[2008]DvDrip Avi Xvid & Covers -GuySmiley.r12

14.31 MB

 2012 Doomsday[2008]DvDrip Avi Xvid & Covers -GuySmiley.r13

14.31 MB

 2012 Doomsday[2008]DvDrip Avi Xvid & Covers -GuySmiley.r14

14.31 MB

 2012 Doomsday[2008]DvDrip Avi Xvid & Covers -GuySmiley.r15

14.31 MB

 2012 Doomsday[2008]DvDrip Avi Xvid & Covers -GuySmiley.r16

14.31 MB

 2012 Doomsday[2008]DvDrip Avi Xvid & Covers -GuySmiley.r17

14.31 MB

 2012 Doomsday[2008]DvDrip Avi Xvid & Covers -GuySmiley.r18

14.31 MB

 2012 Doomsday[2008]DvDrip Avi Xvid & Covers -GuySmiley.r19

14.31 MB

 2012 Doomsday[2008]DvDrip Avi Xvid & Covers -GuySmiley.r20

14.31 MB

 2012 Doomsday[2008]DvDrip Avi Xvid & Covers -GuySmiley.r21

14.31 MB

 2012 Doomsday[2008]DvDrip Avi Xvid & Covers -GuySmiley.r22

14.31 MB

 2012 Doomsday[2008]DvDrip Avi Xvid & Covers -GuySmiley.r23

14.31 MB

 2012 Doomsday[2008]DvDrip Avi Xvid & Covers -GuySmiley.r24

14.31 MB

 2012 Doomsday[2008]DvDrip Avi Xvid & Covers -GuySmiley.r25

14.31 MB

 2012 Doomsday[2008]DvDrip Avi Xvid & Covers -GuySmiley.r26

14.31 MB

 2012 Doomsday[2008]DvDrip Avi Xvid & Covers -GuySmiley.r27

14.31 MB

 2012 Doomsday[2008]DvDrip Avi Xvid & Covers -GuySmiley.r28

14.31 MB

 2012 Doomsday[2008]DvDrip Avi Xvid & Covers -GuySmiley.r29

14.31 MB

 2012 Doomsday[2008]DvDrip Avi Xvid & Covers -GuySmiley.r30

14.31 MB

 2012 Doomsday[2008]DvDrip Avi Xvid & Covers -GuySmiley.r31

14.31 MB

 2012 Doomsday[2008]DvDrip Avi Xvid & Covers -GuySmiley.r32

14.31 MB

 2012 Doomsday[2008]DvDrip Avi Xvid & Covers -GuySmiley.r33

14.31 MB

 2012 Doomsday[2008]DvDrip Avi Xvid & Covers -GuySmiley.r34

14.31 MB

 2012 Doomsday[2008]DvDrip Avi Xvid & Covers -GuySmiley.r35

14.31 MB

 2012 Doomsday[2008]DvDrip Avi Xvid & Covers -GuySmiley.r36

14.31 MB

 2012 Doomsday[2008]DvDrip Avi Xvid & Covers -GuySmiley.r37

14.31 MB

 2012 Doomsday[2008]DvDrip Avi Xvid & Covers -GuySmiley.r38

14.31 MB

 2012 Doomsday[2008]DvDrip Avi Xvid & Covers -GuySmiley.r39

14.31 MB

 2012 Doomsday[2008]DvDrip Avi Xvid & Covers -GuySmiley.r40

14.31 MB

 2012 Doomsday[2008]DvDrip Avi Xvid & Covers -GuySmiley.r41

14.31 MB

 2012 Doomsday[2008]DvDrip Avi Xvid & Covers -GuySmiley.r42

14.31 MB

 2012 Doomsday[2008]DvDrip Avi Xvid & Covers -GuySmiley.r43

14.31 MB

 2012 Doomsday[2008]DvDrip Avi Xvid & Covers -GuySmiley.r44

14.31 MB

 2012 Doomsday[2008]DvDrip Avi Xvid & Covers -GuySmiley.r45

14.31 MB

 2012 Doomsday[2008]DvDrip Avi Xvid & Covers -GuySmiley.r46

14.31 MB

 2012 Doomsday[2008]DvDrip Avi Xvid & Covers -GuySmiley.r47

14.31 MB

 2012 Doomsday[2008]DvDrip Avi Xvid & Covers -GuySmiley.r48

3.07 MB

 2012 Doomsday[2008]DvDrip Avi Xvid & Covers -GuySmiley.rar

14.31 MB

 2012 Doomsday[2008]DvDrip Avi Xvid & Covers -GuySmiley.sfv

8.30 KB
 

Announce URL: http://tracker.ilovetorrents.com/announce.php

Torrent description

General
----------
Format : AVI
Format/Info : Audio Video Interleave
File size : 697 MiB
Duration : 1h 25mn
Overall bit rate : 1 143 Kbps
Movie name : 2012.Title1.DVDRip
Director : Patric
Writing application : Lavf51.12.2
Original source form/Name : 2012

Video
Format : MPEG-4 Visual
Format profile : [email protected]
Format settings, BVOP : No
Format settings, QPel : No
Format settings, GMC : No warppoints
Format settings, Matrix : Default
Codec ID : XVID
Codec ID/Hint : XviD
Duration : 1h 25mn
Bit rate : 1 002 Kbps
Width : 624 pixels
Height : 352 pixels
Display aspect ratio : 16/9
Frame rate : 23.976 fps
Resolution : 24 bits
Colorimetry : 4:2:0
Scan type : Progressive
Bits/(Pixel*Frame) : 0.190
Stream size : 611 MiB (88%)
Writing library : XviD 1.1.2 (UTC 2006-11-01)

Audio
Format : MPEG Audio
Format version : Version 1
Format profile : Layer 3
Codec ID : 55
Codec ID/Hint : MP3
Duration : 1h 25mn
Bit rate mode : Constant
Bit rate : 128 Kbps
Channel(s) : 2 channels
Sampling rate : 48.0 KHz
Resolution : 16 bits
Stream size : 78.1 MiB (11%)
Alignment : Aligned on interleaves
Interleave, duration : 24 ms (0.58 video frame)
Writing library : LAME3.97
--------------------------------------------------------------
Plot:On December 21, 2012 four strangers on a journey of faith are
drawn to an ancient temple in the heart of Mexico. For the Mayans
it is the last recorded day. For NASA scientists it is a cataclysmic
polar shift. For the rest of us, it is Doomsday.
--------------------------------------------------------------
IMDB:http://www.imdb.com/title/tt1132130/

related torrents

Torrent name

health leech seeds Size
 

comments (0)

Main Menu