UK

Storyville The Biggest Chinese Restaurant in the World BBC4 Episode 3 Family Duties (June 11

  • Download 5x Faster
  • Download torrent
  • Direct Download
  • Rate this torrent +  |  -

Torrent info

Name:Storyville The Biggest Chinese Restaurant in the World BBC4 Episode 3 Family Duties (June 11

Total Size: 315.81 MB

Magnet: Magnet Link

Seeds: 0

Leechers: 0

Stream: Watch Online @ Movie4u

Last Updated: 2015-08-21 10:09:38 (Update Now)

Torrent added: 2009-09-12 07:36:21




Torrent Files List


Storyville - The Biggest Chinese Restaurant in the World (Pt.3) Family Duties.avi (Size: 315.81 MB) (Files: 1)

 Storyville - The Biggest Chinese Restaurant in the World (Pt.3) Family Duties.avi

315.81 MB
 

tracker

leech seeds
 

Torrent description

This torrent was uploaded from www.TheBox.bz (signup is open and free) - the home of all British TV

Storyville - The Biggest Chinese Restaurant in the World - BBC4 - Episode 3 - Family Duties (June 11 2008 [ TVRip (XviD) ]

Four-part series looking at China's largest restaurant explores the strong sense of duty implicit in family relationships in China. It shows how waitress Peng has sacrificed her own education to support her sister's studies. The restaurant is also busy preparing for a 70th birthday banquet for Sun and her family, including special dishes such as steamed longevity buns and stir-fried turtle.

Through her story, this episode explores China's painful past and the extreme hardship faced by many families. The owner, Qin Linzi, discusses her own difficult childhood and introduces us to her daughter, who has led a privileged life.

Viewer warning: scenes of animal distress

General
Complete name : Storyville - The Biggest Chinese Restaurant in the World (Pt.3) Family Duties.avi
Format : AVI
Format/Info : Audio Video Interleave
File size : 316 MiB
Duration : 28mn 39s
Overal bit rate : 1540 Kbps

Video
Format : MPEG-4 Visual
Format profile : [email protected]
Format settings, BVOP : No
Format settings, QPel : No
Format settings, GMC : 0 warppoint
Format settings, Matrix : Default
Codec ID : XVID
Codec ID/Hint : XviD
Duration : 28mn 39s
Bit rate : 1400 Kbps
Width : 480 pixels
Height : 272 pixels
Display aspect ratio : 16/9
Frame rate : 25.000 fps
Resolution : 8 bits
Colorimetry : 4:2:0
Scan type : Progressive
Bits/(Pixel*Frame) : 0.429
Stream size : 287 MiB
Writing library : XviD 1.2.0SMP
Writing library/Date : UTC 2006-01-08

Audio
Format : MPEG Audio
Format version : Version 1 / Layer 3
Codec ID : 55
Codec ID/Hint : MP3
Duration : 28mn 39s
Bit rate mode : CBR
Bit rate : 128 Kbps
Channel(s) : 2 channels
Sampling rate : 48.0 KHz
Resolution : 16 bits
Stream size : 26.2 MiB

===============================

Some of the other rather spiffing shows available now and always if you signup free @ www.TheBox.bz:

Comedy: The Office, Peep Show, Coupling, Chef, Fawlty Towers, Only Fools and Horses, The IT Crowd, Brass Eye, Nathan Barley, Young Ones, Monty Python, Blackadder, Alan Partridge, Father Ted, Coupling, Little Britain, Mr Bean, Extras, Green Wing, Mighty Boosh

Drama: Casualty, Holby City, The Bill, Hustle, Skins, Shameless, Ashes To Ashes

Entertainment: Faking It, Derren Brown, Scrapheap Challenge, Strictly Come Dancing, Wife Swap

Game/Quiz Shows: Whose Line Is It Anyway?, Have I Got News For You, Deal Or No Deal (UK), Q.I.

Education/Documentary: Planet Earth, Horizon, Panorama, Mark Thomas (Comedy) Product

Food: Hell's Kitchen, Jamie Oliver, The F Word, Kitchen Nightmares, Masterchef, Great British Menu, Gordon Ramsay's Cookalong

Home/Property/Garden: Property Ladder, How Clean Is Your House?, Changing Rooms, Grand Designs, Homes Under The Hammer, To Buy Or Not To Buy

Motoring: Top Gear, Fifth Gear

Music: Top Of The Pops, Jools Holland, Glastonbury

Reality: Big Brother, Celebrity Big Brother, I'm a Celebrity - Get Me Out of Here!, Any Dream Will Do, Grease, Pop Idol, Wife Swap, X Factor, Badger Or Bust, Apprentice UK, Dragons' Den, Britain's Got Talent

Sci-Fi: Doctor Who, Red Dwarf, Torchwood, Primeval

Sport: Football (Soccer), Cricket, Rugby, Snooker, Darts, Formula One (F1GP)

Soaps: Eastenders, Coronation Street, Emmerdale, Neighbours, Hollyoaks

Style/Fashion: What Not To Wear, Project Catwalk

Kids: Teletubbies, Blue Peter, Tikkabilla, Andy Pandy, Postman Pat, Shoebox Zoo, Brum, Bob The Builder, Young Dracula, Sarah Jane Adventures, Shaun The Sheep

related torrents

Torrent name

health leech seeds Size
 

comments (0)

Main Menu