Comedy

Frequently Asked Questions About Time Travel[2009] DVDRip XviD DiVERSE

  • Download 5x Faster
  • Download torrent
  • Direct Download
  • Rate this torrent +  |  -
Frequently Asked Questions About Time Travel[2009] DVDRip XviD DiVERSE

Free and Direct Download with Usenet 300GB+ free


Torrent info

Name:Frequently Asked Questions About Time Travel[2009] DVDRip XviD DiVERSE

Total Size: 717.25 MB

Magnet: Magnet Link

Seeds: 1

Leechers: 3

Stream: Watch Online @ Movie4u

Last Updated: 0000-00-00 00:00:00 (Update Now)

Torrent added: 2009-09-12 05:40:11




Torrent Files List


Frequently Asked Questions About Time Travel[2009] DVDRip XviD-DiVERSE.rar (Size: 717.25 MB) (Files: 1)

 Frequently Asked Questions About Time Travel[2009] DVDRip XviD-DiVERSE.rar

717.25 MB
 

Announce URL: http://genesis.1337x.org:1337/announce

Torrent description

Frequently Asked Questions About Time Travel[2009] DVDRip XviD-DiVERSE



General
Complete name : Frequently Asked Questions About Time Travel[2009] DVDRip

XviD-DiVERSE
Format : AVI
Format/Info : Audio Video Interleave
File size : 700 MiB
Duration : 1h 19mn
Overall bit rate : 1 234 Kbps
Writing application : Nandub v1.0rc2
Writing library : Nandub build 1852/release

Video
Format : MPEG-4 Visual
Format profile : Streaming [email protected]
Format settings, BVOP : No
Format settings, QPel : No
Format settings, GMC : No warppoints
Format settings, Matrix : Default
Codec ID : XVID
Codec ID/Hint : XviD
Duration : 1h 19mn
Bit rate : 1 094 Kbps
Width : 624 pixels
Height : 336 pixels
Display aspect ratio : 1.857
Frame rate : 25.000 fps
Resolution : 24 bits
Colorimetry : 4:2:0
Scan type : Progressive
Bits/(Pixel*Frame) : 0.209
Stream size : 620 MiB (89%)
Writing library : XviD 1.2.1 (UTC 2008-12-04)

Audio
Format : MPEG Audio
Format version : Version 1
Format profile : Layer 3
Codec ID : 55
Codec ID/Hint : MP3
Duration : 1h 19mn
Bit rate mode : Variable
Bit rate : 127 Kbps
Nominal bit rate : 128 Kbps
Channel(s) : 2 channels
Sampling rate : 48.0 KHz
Resolution : 16 bits
Video delay : 312ms
Stream size : 72.2 MiB (10%)
Alignment : Aligned on interleaves
Interleave, duration : 24 ms (0.60 video frame)
Interleave, preload duration : 1002 ms
Writing library : LAME3.90.
Encoding settings : ABR


Chris O'Dowd ... Ray
Marc Wootton ... Toby
Dean Lennox Kelly ... Pete
Anna Faris ... Cassie
Paul Adams ... Tramp
Dario Attanasio ... Monkey Mayhem Promoter
John Snowden ... Dart Player
John Warman ... Dart player





The script, written by Jamie Mathieson, follows three social outcasts -- two geeks and a cynic -- as they attempt to navigate a time-travel conundrum in the middle of a British pub. Faris plays a girl from the future who sets the adventure in motion.

related torrents

Torrent name

health leech seeds Size
 

comments (0)

Main Menu