Animation

The Simpsons Movie (2007) WS DVDRip big dad e

  • Download 5x Faster
  • Download torrent
  • Direct Download
  • Rate this torrent +  |  -
The Simpsons Movie (2007) WS DVDRip big dad e

Download FREE And Anonymously


Torrent info

Name:The Simpsons Movie (2007) WS DVDRip big dad e

Total Size: 595.46 MB

Magnet: Magnet Link

Seeds: 4

Leechers: 0

Stream: Watch Full Movie @ Movie4u

Last Updated: 0000-00-00 00:00:00 (Update Now)

Torrent added: 2009-09-12 05:40:10



VPN For Torrents

Torrent Files List


SIMPSONS DVDRip big dad e.mp4 (Size: 595.46 MB) (Files: 6)

 SIMPSONS DVDRip big dad e.mp4

595.40 MB

 simpsons.jpg

39.75 KB

 big_dad_e.jpg

17.05 KB

 big_dad_E.txt

2.94 KB

 Torrent downloaded from Demonoid.com.txt

0.05 KB

 tracked_by_h33t_com.txt

0.02 KB
 

Announce URL: http://tracker.openbittorrent.com/announce

Torrent description

Director: David Silverman
Homer adopts a pig who's run away from Krusty Burger after Krusty tried to have him slaughtered, naming the pig "Spider Pig." At the same time, the lake is protected after the audience sink the barge Green Day are on with garbage after they mention the environment. Meanwhile, Spider Pig's waste has filled up a silo in just 2 days, apparently with Homer's help. Homer can't get to the dump quickly so dumps the silo in the lake, polluting it. Russ Cargill, the villainous boss of the EPA, gives Arnold Schwarzenegger 5 options, forcing him to choose 4 (which is, unfortunately, to destroy Springfield) and putting a dome over Springfield to prevent evacuation. Homer, however, has escaped, along with his family. Can he stop the evil Cargill from annihilating his home town, and his family, who have been forced to return to Springfield? Written by movieguy3

The city of Springfield orders a clean up of the polluted Lake Springfield and bans waste dumps there. However, someone forgot to tell Homer Simpson that, and when he dumps a silo of "Pig Crap" in it, he inadvertently dooms Springfield, his family, and himself. Written by Drew

Thanks to Lisa Simpson, Lake Springfield is cleaned up from the pollution that once fouled it. But when Homer, who's adopted a pig (Spider-pig) and dumps a silo full of the pig's crap in the lake, the EPA places a large dome over Springfield, and the Simpsons family manage to escape through a sinkhole. The family flees to a better life in Alaska, but when the head of the EPA, Russ Cargill, orders the towns destruction, it's up to Homer to save Springfield! Written by Anthony

In Springfield, Lisa convinces the locals to clean up the polluted Lake Springfield after the sinking of the stage of the Green Day in a concert of rock and roll. Meanwhile, Homer saves a pig from being killed in Krusty Burger and adopts it, calling the animal Spider Pig. After two days, Spider Pig fills up a silo with its excrement and Homer dumps the silo in the lake, polluting it. The angry population forces the Simpsons to move to Alaska. Meanwhile the stupid president Arnold Schwarzenegger is induced by his advisor from EPA to put a dome over Springfield to hold the population and destroy the city. When Marge sees the new in the television, she tells Homer that they must return to Springfield to save their town and friends, but Homer is not convinced if people of Springfield deserve their support. Written by Claudio Carvalho, Rio de Janeiro, Brazil

When Lisa Simpson tells the town of Springfield about their pollution problem, the town reacts and prohibits all pollution into the water. This doesn't stop Homer, who dumps a pig-waste silo into the water. Russ Cargill decides that Springfield is too dangerous and places a dome over the town, stopping anything from getting in or out. When the town people find out the true culprit behind the problem, they set out off straight for the Simpson's home. Escaping from the dome, the Simpsons decide to start a new life in Alaska, whilst the remainder of the town disappears. Written by Film_Fan

File Confirmation:
General
Complete name : C:\Documents and Settings\Owner\Desktop\conv\Torrent_convert\The Simpsons Movie (2007) WS DVDRip big dad e\SIMPSONS DVDRip big dad e.mp4
Format : MPEG-4
Format profile : Base Media
Codec ID : isom
File size : 595 MiB
Duration : 1h 26mn
Overall bit rate : 959 Kbps
Movie name : SIMPSONS DVDRip big dad e
Encoded date : UTC 2009-09-12 00:27:29
Tagged date : UTC 2009-09-12 00:27:29
Comment : QuickTime 6.0 or greater

Video
ID : 1
Format : MPEG-4 Visual
Format profile : [email protected]
Format settings, BVOP : No
Format settings, QPel : No
Format settings, GMC : No warppoints
Format settings, Matrix : Default (H.263)
Codec ID : 20
Duration : 1h 26mn
Bit rate mode : Constant
Bit rate : 842 Kbps
Nominal bit rate : 768 Kbps
Width : 320 pixels
Height : 192 pixels
Display aspect ratio : 1.667
Frame rate mode : Constant
Frame rate : 29.970 fps
Resolution : 24 bits
Colorimetry : 4:2:0
Scan type : Progressive
Bits/(Pixel*Frame) : 0.458
Stream size : 523 MiB (88%)
Writing library : XviD 1.1.0 (UTC 2005-11-22)
Encoded date : UTC 2009-09-12 00:27:29
Tagged date : UTC 2009-09-12 00:27:29

Audio
ID : 2
Format : AAC
Format/Info : Advanced Audio Codec
Format version : Version 4
Format profile : LC
Format settings, SBR : No
Codec ID : 40
Duration : 1h 26mn
Bit rate mode : Constant
Bit rate : 112 Kbps
Channel(s) : 2 channels
Channel positions : L R
Sampling rate : 48.0 KHz
Resolution : 16 bits
Stream size : 69.5 MiB (12%)
Encoded date : UTC 2009-09-12 00:27:29
Tagged date : UTC 2009-09-12 00:27:29

File Scan:
Malwarebytes' Anti-Malware 1.41
Database version: 2782
Windows 5.1.2600 Service Pack 3

9/12/2009 1:58:13 AM
mbam-log-2009-09-12 (01-58-13).txt

Scan type: Quick Scan
Objects scanned: 1
Time elapsed: 10 second(s)

Memory Processes Infected: 0
Memory Modules Infected: 0
Registry Keys Infected: 0
Registry Values Infected: 0
Registry Data Items Infected: 0
Folders Infected: 0
Files Infected: 0

Memory Processes Infected:
(No malicious items detected)

Memory Modules Infected:
(No malicious items detected)

Registry Keys Infected:
(No malicious items detected)

Registry Values Infected:
(No malicious items detected)

Registry Data Items Infected:
(No malicious items detected)

Folders Infected:
(No malicious items detected)

Files Infected:
(No malicious items detected)
Quicktime for iPod

related torrents

Torrent name

health leech seeds Size
 


comments (0)

Main Menu

 

script data-cfasync="false" src="//d2ghscazvn398x.cloudfront.net/?cshgd=690275">