Pop

Bee Gees The Very Best Of The Bee Gees (1996) [LOSSLESS FLAC][Tntvillage Scambioetico]

  • Download 5x Faster
  • Download torrent
  • Direct Download
  • Rate this torrent +  |  -

Torrent info

Name:Bee Gees The Very Best Of The Bee Gees (1996) [LOSSLESS FLAC][Tntvillage Scambioetico]

Total Size: 430.46 MB

Magnet: Magnet Link

Seeds: 3

Leechers: 1

Stream: Watch Online @ Movie4u

Last Updated: 2015-06-30 14:34:39 (Update Now)

Torrent added: 2009-09-12 04:35:47





Torrent Files List


19 - Bee Gees - Tragedy.flac (Size: 430.46 MB) (Files: 23)

 19 - Bee Gees - Tragedy.flac

33.99 MB

 13 - Bee Gees - You should be dancing.flac

31.50 MB

 16 - Bee Gees - Stayin' alive.flac

31.29 MB

 18 - Bee Gees - Too much heaven.flac

29.34 MB

 12 - Bee Gees - Nights on broadway.flac

29.19 MB

 14 - Bee Gees - How deep is your love.flac

24.77 MB

 17 - Bee Gees - Night fever.flac

23.09 MB

 11 - Bee Gees - Jive talkin'.flac

22.50 MB

 08 - Bee Gees - Don't forget to remember.flac

22.46 MB

 15 - Bee Gees - More than a woman.flac

20.45 MB

 06 - Bee Gees - I've gotta get a message to you.flac

19.72 MB

 04 - Bee Gees - World.flac

18.78 MB

 05 - Bee Gees - Words.flac

18.42 MB

 09 - Bee Gees - Saved by the bell.flac

18.05 MB

 10 - Bee Gees - Run to me.flac

17.42 MB

 02 - Bee Gees - To love somebody.flac

17.05 MB

 07 - Bee Gees - First of may.flac

15.37 MB

 03 - Bee Gees - Massachusetts.flac

14.71 MB

 01 - Bee Gees - New York mining disaster 1941.flac

12.11 MB

 Cover_Inside.jpg

6.91 MB

 Cover_Front.jpg

2.35 MB

 Cover_Back.jpg

0.99 MB

 Bee Gees - The very best of the Bee Gees.log

8.06 KB
 

tracker

leech seeds
 

Torrent description

Bee Gees - The Very Best Of The Bee Gees (1996) [LOSSLESS FLAC][Tntvillage.Scambioetico]



Visit this link: More info on this torrent

Visit this link: All My Torrent




Bee Gees - The Very Best Of The Bee Gees


by RDaneel



Image Link
Image Link





[::Album Information::]

Title: The Very Best Of The Bee Gees
Years: 1996 (From 1990 version)
Genre: Pop - Disco
Production: Polydor



[::Tracklist::]

1. New York Mining Disaster 1941 (Barry-Robin Gibb) - 2:12
2. To Love Somebody (Barry-Robin Gibb) - 3:01
3. Massachusetts (Barry-Maurice-Robin Gibb) - 2:24
4. World (Barry-Maurice-Robin Gibb) - 3:15
5. Words (Barry-Maurice-Robin Gibb) - 3:16
6. I've Gotta Get A Message To You (Barry-Maurice-Robin Gibb) - 3:08
7. First Of May (Barry-Maurice-Robin Gibb) - 2:49
8. Don't Forget To Remember (Barry-Maurice Gibb) - 3:29
9. Saved By The Bell (Robin Gibb) - 3:07
10. Run To Me (Barry-Maurice-Robin Gibbt) - 3:07
11. Jive Talkin' (Barry-Maurice-Robin Gibb) - 3:44
12. Nights On Broadway (Barry-Maurice-Robin Gibb) - 4:27
13. You Should Be Dancing (Barry-Maurice-Robin Gibb) - 4:46
14. How Deep Is Your Love (Barry-Maurice-Robin Gibb) - 4:03
15. More Than A Woman (Barry-Maurice-Robin Gibb) - 3:16
16. Stayin' Alive (Barry-Maurice-Robin Gibb) - 4:43
17. Night Fever (Barry-Maurice-Robin Gibb) - 3:31
18. Too Much Heaven (Barry-Maurice-Robin Gibb) - 4:57
19. Tragedy (Barry-Maurice-Robin Gibb) - 5:03




[::Review::]

The Brothers Gibb (nicknamed) "Bee Gees" are a pop group whose primary members have been a singing trio of brothers — Barry, Robin, and Maurice Gibb. The group was successful for most of its forty years of recording music, but the trio had two distinct periods of exceptional success: as a harmonic "soft rock" act in the late 1960s and early 1970s, and as the foremost stars of the disco music era in the late 1970s. The group sang three-part tight harmonies that were instantly recognizable; brother Robin's clear vibrato lead was a hallmark of their earlier hits, while Barry's R&B falsetto became a signature sound during the disco years. The three brothers co-wrote most of their own hits, as well as writing and producing several major hits for other artists.
Born on the Isle of Man to English parents, the family lived in various locales that included Chorlton-cum-Hardy, Manchester, England and Brisbane, Queensland, Australia, where they began their musical careers. After early chart success in Australia, they returned to the United Kingdom where producer Robert Stigwood promoted them to a worldwide audience. It has been estimated that the Bee Gees' record sales total more than 200 million, making them one of the best-selling music artists of all time. They were inducted into the Rock and Roll Hall of Fame in 1997; fittingly, the presenter of the award to "Britain's first family of harmony" was Brian Wilson, historical leader of the Beach Boys, America's first family of rock harmony. Their Hall of Fame citation says "Only Elvis Presley, The Beatles, Michael Jackson, Garth Brooks and Paul McCartney have outsold the Bee Gees".
Following Maurice's sudden death on 12 January 2003, Barry and Robin Gibb temporarily ended the group after forty-five years of activity. On September 7th, 2009, Robin Gibb revealed that he and Barry Gibb had agreed that the Bee Gees would reform and "perform again".
The Bee Gees have sold in excess of 205 million records and singles worldwide. "How Deep Is Your Love" is their most popular composition, with over 400 versions by other artists in existence.
At one point in 1978, the Gibb brothers were responsible for writing and/or performing 9 of the songs in the Billboard Hot 100. In all, the Gibbs placed 13 singles onto the Hot 100 in 1978, with 12 making the Top 40.
Their songs have been covered by singers of all stripes including Elvis Presley, Janis Joplin, Al Green, Eric Clapton, Lulu, Elton John, Tom Jones, Nina Simone, John Frusciante (who has covered "How Deep Is Your Love" during Red Hot Chili Peppers concerts), Feist, Billy Corgan, Michael Bolton, Robert Smith, Ardijah, Steps, US5 and Destiny's Child.
Songs written by the Gibbs but largely better known through versions by other artists include the following:

* "Immortality" by Celine Dion
* "If I Can't Have You" by Yvonne Elliman
* "Chain Reaction" by Diana Ross
* "Spicks and Specks" by Status Quo
* "Emotion" by Samantha Sang and by Destiny's Child
* "Come On Over" by Olivia Newton-John
* "Warm Ride" by Graham Bonnet and by Rare Earth
* "Guilty" and "Woman in Love" by Barbra Streisand
* "Heartbreaker" & "All The Love In The World" by Dionne Warwick
* "Islands in the Stream" by Kenny Rogers and Dolly Parton
* "Grease" by Frankie Valli
* "Hold On To My Love" by Jimmy Ruffin
* "Only One Woman" by The Marbles
* "Morning of My Life" by Abi and Esther Ofarim
* "Rest Your Love on Me" by Conway Twitty
* "Buried Treasure" by Kenny Rogers (backing vocals The Gatlin Brothers)
* "Ain't Nothing Gonna Keep Me From You" by Teri DeSario

Many hit covers and album tracks of the Bee Gees' songs have been recorded, and the band's music has also been sampled by dozens of hip hop artists.

From Wikipedia



[::Technical data::]

Codec usato: Flac.

Tracce rippate da cd originale


Exact Audio Copy V0.99 prebeta 5 from 4. May 2009

EAC extraction logfile from 7. September 2009, 0:28

Bee Gees / The very best of the Bee Gees

Used drive : TSSTcorpCDDVDW SH-S202J Adapter: 1 ID: 0

Read mode : Secure
Utilize accurate stream : Yes
Defeat audio cache : No
Make use of C2 pointers : No

Read offset correction : 6
Overread into Lead-In and Lead-Out : No
Fill up missing offset samples with silence : Yes
Delete leading and trailing silent blocks : No
Null samples used in CRC calculations : Yes
Used interface : Installed external ASPI interface
Gap handling : Not detected, thus appended to previous track

Used output format : User Defined Encoder
Selected bitrate : 1024 kBit/s
Quality : High
Add ID3 tag : No
Command line compressor : C:\Programmi\Exact Audio Copy\FLAC\FLAC.EXE
Additional command line options : -8 -V -T "artist=%a" -T "title=%t" -T "album=%g" -T "date=%y" -T "tracknumber=%n" -T "genre=%m" %s


TOC of the extracted CD

Track | Start | Length | Start sector | End sector
---------------------------------------------------------
1 | 0:00.00 | 2:11.62 | 0 | 9886
2 | 2:11.62 | 3:01.43 | 9887 | 23504
3 | 5:13.30 | 2:23.52 | 23505 | 34281
4 | 7:37.07 | 3:15.23 | 34282 | 48929
5 | 10:52.30 | 3:16.12 | 48930 | 63641
6 | 14:08.42 | 3:08.08 | 63642 | 77749
7 | 17:16.50 | 2:49.10 | 77750 | 90434
8 | 20:05.60 | 3:29.00 | 90435 | 106109
9 | 23:34.60 | 3:06.70 | 106110 | 120129
10 | 26:41.55 | 3:07.07 | 120130 | 134161
11 | 29:48.62 | 3:44.00 | 134162 | 150961
12 | 33:32.62 | 4:27.38 | 150962 | 171024
13 | 38:00.25 | 4:46.50 | 171025 | 192524
14 | 42:47.00 | 4:03.15 | 192525 | 210764
15 | 46:50.15 | 3:15.65 | 210765 | 225454
16 | 50:06.05 | 4:43.00 | 225455 | 246679
17 | 54:49.05 | 3:31.40 | 246680 | 262544
18 | 58:20.45 | 4:57.20 | 262545 | 284839
19 | 63:17.65 | 5:02.60 | 284840 | 307549


Track 1

Filename C:\Musica\Musica_Rippata\Bee Gees\The very best of the Bee Gees\01 - Bee Gees - New York mining disaster 1941.wav

Peak level 95.2 %
Track quality 99.9 %
Test CRC 59BDEFB5
Copy CRC 59BDEFB5
Accurately ripped (confidence 50) [692C2AA5]
Copy OK

Track 2

Filename C:\Musica\Musica_Rippata\Bee Gees\The very best of the Bee Gees\02 - Bee Gees - To love somebody.wav

Peak level 89.5 %
Track quality 100.0 %
Test CRC D7331895
Copy CRC D7331895
Accurately ripped (confidence 50) [1B868638]
Copy OK

Track 3

Filename C:\Musica\Musica_Rippata\Bee Gees\The very best of the Bee Gees\03 - Bee Gees - Massachusetts.wav

Peak level 95.1 %
Track quality 100.0 %
Test CRC 0561006D
Copy CRC 0561006D
Accurately ripped (confidence 50) [DB0878C8]
Copy OK

Track 4

Filename C:\Musica\Musica_Rippata\Bee Gees\The very best of the Bee Gees\04 - Bee Gees - World.wav

Peak level 95.5 %
Track quality 100.0 %
Test CRC 07286F8A
Copy CRC 07286F8A
Accurately ripped (confidence 48) [9F36361E]
Copy OK

Track 5

Filename C:\Musica\Musica_Rippata\Bee Gees\The very best of the Bee Gees\05 - Bee Gees - Words.wav

Peak level 96.9 %
Track quality 100.0 %
Test CRC B6B3AFEB
Copy CRC B6B3AFEB
Accurately ripped (confidence 49) [92788898]
Copy OK

Track 6

Filename C:\Musica\Musica_Rippata\Bee Gees\The very best of the Bee Gees\06 - Bee Gees - I've gotta get a message to you.wav

Peak level 95.5 %
Track quality 100.0 %
Test CRC 47785A48
Copy CRC 47785A48
Accurately ripped (confidence 48) [CAFCFA92]
Copy OK

Track 7

Filename C:\Musica\Musica_Rippata\Bee Gees\The very best of the Bee Gees\07 - Bee Gees - First of may.wav

Peak level 85.1 %
Track quality 100.0 %
Test CRC 4B559B56
Copy CRC 4B559B56
Accurately ripped (confidence 48) [E5BF1A73]
Copy OK

Track 8

Filename C:\Musica\Musica_Rippata\Bee Gees\The very best of the Bee Gees\08 - Bee Gees - Don't forget to remember.wav

Peak level 80.0 %
Track quality 100.0 %
Test CRC 1A4936DD
Copy CRC 1A4936DD
Accurately ripped (confidence 49) [2B0ABBD2]
Copy OK

Track 9

Filename C:\Musica\Musica_Rippata\Bee Gees\The very best of the Bee Gees\09 - Bee Gees - Saved by the bell.wav

Peak level 98.2 %
Track quality 99.9 %
Test CRC 286B1D5B
Copy CRC 286B1D5B
Accurately ripped (confidence 48) [58F00AF5]
Copy OK

Track 10

Filename C:\Musica\Musica_Rippata\Bee Gees\The very best of the Bee Gees\10 - Bee Gees - Run to me.wav

Peak level 96.3 %
Track quality 100.0 %
Test CRC D36307DF
Copy CRC D36307DF
Accurately ripped (confidence 48) [50A5FCDD]
Copy OK

Track 11

Filename C:\Musica\Musica_Rippata\Bee Gees\The very best of the Bee Gees\11 - Bee Gees - Jive talkin'.wav

Peak level 97.7 %
Track quality 100.0 %
Test CRC A97F6665
Copy CRC A97F6665
Accurately ripped (confidence 49) [C224622E]
Copy OK

Track 12

Filename C:\Musica\Musica_Rippata\Bee Gees\The very best of the Bee Gees\12 - Bee Gees - Nights on broadway.wav

Peak level 95.7 %
Track quality 100.0 %
Test CRC 4EFCCC53
Copy CRC 4EFCCC53
Accurately ripped (confidence 48) [199C2FBA]
Copy OK

Track 13

Filename C:\Musica\Musica_Rippata\Bee Gees\The very best of the Bee Gees\13 - Bee Gees - You should be dancing.wav

Peak level 97.0 %
Track quality 100.0 %
Test CRC 8DAA4F46
Copy CRC 8DAA4F46
Accurately ripped (confidence 45) [F7C15015]
Copy OK

Track 14

Filename C:\Musica\Musica_Rippata\Bee Gees\The very best of the Bee Gees\14 - Bee Gees - How deep is your love.wav

Peak level 89.1 %
Track quality 100.0 %
Test CRC 916DFB70
Copy CRC 916DFB70
Accurately ripped (confidence 47) [D0F36BE6]
Copy OK

Track 15

Filename C:\Musica\Musica_Rippata\Bee Gees\The very best of the Bee Gees\15 - Bee Gees - More than a woman.wav

Peak level 97.0 %
Track quality 100.0 %
Test CRC 8C8FCB71
Copy CRC 8C8FCB71
Accurately ripped (confidence 46) [82497DA2]
Copy OK

Track 16

Filename C:\Musica\Musica_Rippata\Bee Gees\The very best of the Bee Gees\16 - Bee Gees - Stayin' alive.wav

Peak level 92.6 %
Track quality 100.0 %
Test CRC 0320857B
Copy CRC 0320857B
Accurately ripped (confidence 50) [CCC08834]
Copy OK

Track 17

Filename C:\Musica\Musica_Rippata\Bee Gees\The very best of the Bee Gees\17 - Bee Gees - Night fever.wav

Peak level 98.7 %
Track quality 99.9 %
Test CRC CCB20F02
Copy CRC CCB20F02
Accurately ripped (confidence 45) [A15F8627]
Copy OK

Track 18

Filename C:\Musica\Musica_Rippata\Bee Gees\The very best of the Bee Gees\18 - Bee Gees - Too much heaven.wav

Peak level 100.0 %
Track quality 100.0 %
Test CRC 42D1C1E8
Copy CRC 42D1C1E8
Accurately ripped (confidence 45) [23138C94]
Copy OK

Track 19

Filename C:\Musica\Musica_Rippata\Bee Gees\The very best of the Bee Gees\19 - Bee Gees - Tragedy.wav

Peak level 99.4 %
Track quality 100.0 %
Test CRC 3ED3DEC0
Copy CRC 3ED3DEC0
Accurately ripped (confidence 45) [4BDB695F]
Copy OK


All tracks accurately ripped

No errors occurred

End of status report



Visit http://www.tntvillage.scambioetico.org/

related torrents

Torrent name

health leech seeds Size
 

comments (0)

Main Menu