Drama

Sounder[2003]Disney DVDRip xvid Faye

  • Download 5x Faster
  • Download torrent
  • Direct Download
  • Rate this torrent +  |  -
Sounder[2003]Disney DVDRip xvid Faye

Free and Direct Download with Usenet.nl 300GB+ free


Torrent info

Name:Sounder[2003]Disney DVDRip xvid Faye

Total Size: 697.81 MB

Magnet: Magnet Link

Seeds: 0

Leechers: 1

Stream: Watch Online @ Movie4u

Last Updated: 2015-09-13 14:38:46 (Update Now)

Torrent added: 2009-09-12 04:34:19





Torrent Files List


Sounder[2003]Disney DVDRip xvid-Faye.rar (Size: 697.81 MB) (Files: 1)

 Sounder[2003]Disney DVDRip xvid-Faye.rar

697.81 MB
 

tracker

leech seeds
 

Torrent description

Sounder[2003]Disney DVDRip xvid-Faye




General
Complete name : Sounder[2003]Disney DVDRip xvid-Faye
Format : AVI
Format/Info : Audio Video Interleave
File size : 693 MiB
Duration : 1h 27mn
Overall bit rate : 1 109 Kbps
Writing application : VirtualDubMod 1.5.4.1 (build 2178/release)
Writing library : VirtualDubMod build 2178/release

Video
Format : MPEG-4 Visual
Format profile : Streaming [email protected]
Format settings, BVOP : Yes
Format settings, QPel : No
Format settings, GMC : No warppoints
Format settings, Matrix : Default
Muxing mode : Packed bitstream
Codec ID : XVID
Codec ID/Hint : XviD
Duration : 1h 27mn
Bit rate : 974 Kbps
Width : 512 pixels
Height : 384 pixels
Display aspect ratio : 4/3
Frame rate : 23.976 fps
Resolution : 24 bits
Colorimetry : 4:2:0
Scan type : Progressive
Bits/(Pixel*Frame) : 0.207
Stream size : 609 MiB (88%)
Writing library : XviD 1.2.1 (UTC 2008-12-04)

Audio
Format : MPEG Audio
Format version : Version 1
Format profile : Layer 3
Codec ID : 55
Codec ID/Hint : MP3
Duration : 1h 27mn
Bit rate mode : Constant
Bit rate : 128 Kbps
Minimum bit rate : 128 Kbps
Channel(s) : 2 channels
Sampling rate : 48.0 KHz
Resolution : 16 bits
Stream size : 80.0 MiB (12%)
Alignment : Aligned on interleaves
Interleave, duration : 83 ms (2.00 video frames)
Interleave, preload duration : 504 ms
Writing library : LAME3.98r
Encoding settings : CBR
Language : English


This is a coming-of-age story of a boy living in the Depression era of the South. "Boy" (Daniel Lee Robertson III) learns the hard way about the realities of being black, poor and unable to read. But he also learns about the deep love of family, the long-suffering loyalty of a dog and the importance of words, faith, stories & truth.

related torrents

Torrent name

health leech seeds Size
 

comments (0)

Main Menu