TV - Other

14 LONDYNCZYCY avi

  • Download 5x Faster
  • Download torrent
  • Direct Download
  • Rate this torrent +  |  -
14 LONDYNCZYCY avi

Free and Direct Download with Usenet.nl 300GB+ free


Torrent info

Name:14 LONDYNCZYCY avi

Total Size: 349.83 MB

Magnet: Magnet Link

Seeds: 19

Leechers: 4

Stream: Watch Online @ Movie4u

Last Updated: 2010-12-25 17:48:59 (Update Now)

Torrent added: 2009-09-12 00:36:17





Torrent Files List


14.LONDYNCZYCY.avi (Size: 349.83 MB) (Files: 1)

 14.LONDYNCZYCY.avi

349.83 MB
 

Announce URL: http://tracker.prq.to/announce

Torrent description

General
Complete name 14.LONDYNCZYCY.avi S02E01
Format : AVI
Format/Info : Audio Video Interleave
File size : 350 MiB
Duration : 42mn 19s
Overall bit rate : 1 156 Kbps

Video
ID : 0
Format : MPEG-4 Visual
Format profile : [email protected]
Format settings, BVOP : No
Format settings, QPel : No
Format settings, GMC : No warppoints
Format settings, Matrix : Default (H.263)
Codec ID : XVID
Codec ID/Hint : XviD
Duration : 42mn 19s
Bit rate : 953 Kbps
Width : 720 pixels
Height : 576 pixels
Display aspect ratio : 16/9
Frame rate : 25.000 fps
Standard : PAL
Resolution : 24 bits
Colorimetry : 4:2:0
Scan type : Progressive
Bits/(Pixel*Frame) : 0.092
Stream size : 288 MiB (82%)
Writing library : XviD 1.1.2 (UTC 2006-11-01)

Audio
ID : 1
Format : AC-3
Format/Info : Audio Coding 3
Codec ID : 2000
Duration : 42mn 19s
Bit rate mode : Constant
Bit rate : 192 Kbps
Channel(s) : 2 channels
Channel positions : L R
Sampling rate : 48.0 KHz
Stream size : 58.1 MiB (17%)
Alignment : Aligned on interleaves
Interleave, duration : 32 ms (0.80 video frame)

General
Complete name 15.LONDYNCZYCY.avi S02E02
Format : AVI
Format/Info : Audio Video Interleave
File size : 350 MiB
Duration : 41mn 42s
Overall bit rate : 1 174 Kbps

Video
ID : 0
Format : MPEG-4 Visual
Format profile : [email protected]
Format settings, BVOP : No
Format settings, QPel : No
Format settings, GMC : No warppoints
Format settings, Matrix : Default (H.263)
Codec ID : XVID
Codec ID/Hint : XviD
Duration : 41mn 42s
Bit rate : 971 Kbps
Width : 720 pixels
Height : 576 pixels
Display aspect ratio : 16/9
Frame rate : 25.000 fps
Standard : PAL
Resolution : 24 bits
Colorimetry : 4:2:0
Scan type : Progressive
Bits/(Pixel*Frame) : 0.094
Stream size : 290 MiB (83%)
Writing library : XviD 1.1.2 (UTC 2006-11-01)

Audio
ID : 1
Format : AC-3
Format/Info : Audio Coding 3
Codec ID : 2000
Duration : 41mn 42s
Bit rate mode : Constant
Bit rate : 192 Kbps
Channel(s) : 2 channels
Channel positions : L R
Sampling rate : 48.0 KHz
Stream size : 57.3 MiB (16%)
Alignment : Aligned on interleaves
Interleave, duration : 32 ms (0.80 video frame)
Interleave, preload duration : 512 ms

related torrents

Torrent name

health leech seeds Size

15 LONDYNCZYCY avi

10 27 350.06 MB 0

16 LONDYNCZYCY avi

2 10 350.21 MB 0

17 LONDYNCZYCY avi

27 35 350.11 MB 0

18 LONDYNCZYCY avi

1 9 349.87 MB 0
 

comments (0)

Main Menu