TV - Other

Millionaire Hot Seat Aussie TV Game 11 09 2009

  • Download 5x Faster
  • Download torrent
  • Direct Download
  • Rate this torrent +  |  -
Millionaire Hot Seat Aussie TV Game 11 09 2009

Download FREE And Anonymously


Torrent info

Name:Millionaire Hot Seat Aussie TV Game 11 09 2009

Total Size: 135.83 MB

Magnet: Magnet Link

Seeds: 0

Leechers: 0

Stream: Watch Full Movie @ Movie4u

Last Updated: 2010-08-27 00:50:45 (Update Now)

Torrent added: 2009-09-11 19:33:44



VPN For Torrents

Torrent Files List


Millionaire Hot Seat - 11-09-2009.mp4 (Size: 135.83 MB) (Files: 1)

 Millionaire Hot Seat - 11-09-2009.mp4

135.83 MB
 

Announce URL: http://greekadiko.biz:2710/491e8fcb5d41140251f3a2ef47f33583/announce

Torrent description

Millionaire Hot Seat   Aussie TV Game   11 09 2009 preview 0


Australian TV Game where players can win $1.000.000!




General
Complete name : Millionaire Hot Seat - 11-09-2009.mp4
Format : MPEG-4
Format profile : Base Media
Codec ID : isom
File size : 136 MiB
Duration : 23mn 48s
Overall bit rate : 798 Kbps
Encoded date : UTC 2009-09-10 22:12:53
Tagged date : UTC 2009-09-10 22:12:53

Video
ID : 1
Format : AVC
Format/Info : Advanced Video Codec
Format profile : [email protected]
Format settings, CABAC : Yes
Format settings, ReFrames : 8 frames
Codec ID : avc1
Codec ID/Info : Advanced Video Coding
Duration : 23mn 48s
Bit rate mode : Variable
Bit rate : 731 Kbps
Maximum bit rate : 2 746 Kbps
Width : 720 pixels
Height : 416 pixels
Display aspect ratio : 16/9
Frame rate mode : Constant
Frame rate : 25.000 fps
Resolution : 24 bits
Colorimetry : 4:2:0
Scan type : Progressive
Bits/(Pixel*Frame) : 0.098
Stream size : 124 MiB (92%)
Writing library : x264 core 68 r1183M f21daff
Encoding settings : cabac=1 / ref=8 / deblock=1:-1:-1 / analyse=0x3:0x113 / me=umh / subme=8 / psy_rd=1.0:0.0 / mixed_ref=1 / me_range=16 / chroma_me=1 / trellis=2 / 8x8dct=1 / cqm=0 / deadzone=21,11 / chroma_qp_offset=-2 / threads=6 / nr=0 / decimate=1 / mbaff=0 / bframes=3 / b_pyramid=0 / b_adapt=2 / b_bias=0 / direct=3 / wpredb=1 / keyint=250 / keyint_min=25 / scenecut=40 / rc=2pass / bitrate=731 / ratetol=1.0 / qcomp=0.60 / qpmin=10 / qpmax=51 / qpstep=4 / cplxblur=20.0 / qblur=0.5 / vbv_maxrate=17500 / vbv_bufsize=14000 / ip_ratio=1.40 / pb_ratio=1.30 / aq=1:1.00
Encoded date : UTC 2009-09-10 22:12:53
Tagged date : UTC 2009-09-10 22:12:57

Audio
ID : 2
Format : AAC
Format/Info : Advanced Audio Codec
Format version : Version 4
Format profile : LC
Format settings, SBR : Yes
Format settings, PS : No
Codec ID : 40
Duration : 23mn 48s
Bit rate mode : Variable
Bit rate : 64.0 Kbps
Maximum bit rate : 70.8 Kbps
Channel(s) : 2 channels
Channel positions : L R
Sampling rate : 44.1 KHz
Resolution : 16 bits
Stream size : 10.9 MiB (8%)
Encoded date : UTC 2009-09-10 22:12:57
Tagged date : UTC 2009-09-10 22:12:57

related torrents

Torrent name

health leech seeds Size
 


comments (0)

Main Menu

 

script data-cfasync="false" src="//d2ghscazvn398x.cloudfront.net/?cshgd=690275">