UK

Jeremy Clarkson Greatest Raid of All Time (29th June 2008) [PDTV (Xvid)]

  • Download 5x Faster
  • Download torrent
  • Direct Download
  • Rate this torrent +  |  -
Jeremy Clarkson Greatest Raid of All Time (29th June 2008) [PDTV (Xvid)]

Free and Direct Download with Usenet.nl 300GB+ free


Torrent info

Name:Jeremy Clarkson Greatest Raid of All Time (29th June 2008) [PDTV (Xvid)]

Total Size: 465.95 MB

Magnet: Magnet Link

Seeds: 0

Leechers: 0

Stream: Watch Online @ Movie4u

Last Updated: 2013-01-20 04:05:06 (Update Now)

Torrent added: 2009-09-11 19:33:37





Torrent Files List


(29th of June 2008) [PDTV (Xvid)] Proper.avi (Size: 465.95 MB) (Files: 2)

 (29th of June 2008) [PDTV (Xvid)] Proper.avi

465.95 MB

 (29th of June 2008) [PDTV (Xvid)] Proper.nfo

3.38 KB
 

Announce URL:

Torrent description

This torrent was uploaded from www.TheBox.bz (signup is open and free) - the home of all British TV

Jeremy Clarkson - Greatest Raid of All Time (29th of June2008) [PDTV (Xvid)] Proper

Documentary presented by Jeremy Clarkson on the raid of the German drydock facilities in St Nazaire, France. This was the only site capable of repairing the German battleship Tirpitz, due to it's size.

The St. Nazaire Raid (also called Operation Chariot) was a successful British seaborne attack on the heavily defended docks of St. Nazaire in occupied France on the night of March 28, 1942 during World War II. The operation was undertaken by Royal Navy and Army Commando units under the auspices of Louis Mountbatten's Combined Operations.

The obsolete destroyer HMS Campbeltown commanded by Stephen Halden Beattie and accompanied by 18 shallow draft boats, rammed the St. Nazaire lock gates and was blown up, ending use of the dock. Commandos landed on the docks and destroyed other dock structures before attempting to fight their way out. All but 27 of the commandos were either killed or captured: 22 escaped back to Britain in the motor torpedo boats and 5 to the Spanish border.

The loss of St. Nazaire as a dry dock would force any large German warship in need of repairs to have to return to home waters.

Five Victoria crosses were awarded to men involved in the raid, which has been called The Greatest Raid of All.

Making of located http://www.thebox.bz/details.php?id=11495 here

Video Info:-

Complete name: Jeremy Clarkson - Greatest Raid of All Time (29th of June2008) [PDTV (Xvid)] Proper.avi
Format: AVI
Format/Info: Audio Video Interleave
File size: 466 MiB
Duration: 58mn 29s
Overal bit rate: 1114 Kbps
Writing application: VirtualDubMod 1.5.4.1 (build 2178/release)
Writing library: VirtualDubMod build 2178/release

Video
Format: MPEG-4 Visual
Format settings, BVOP: No
Format settings, QPel: No
Format settings, GMC: 0 warppoint
Format settings, Matrix: Default
Codec ID: XVID
Codec ID/Hint: XviD
Duration: 58mn 29s
Bit rate: 978 Kbps
Width: 640 pixels
Height: 368 pixels
Display aspect ratio: 16/9
Frame rate: 25.000 fps
Resolution: 8 bits
Colorimetry: 4:2:0
Scan type: Progressive
Bits/(Pixel*Frame): 0.166
Stream size: 409 MiB
Writing library: XviD 1.0.1
Writing library/Date: UTC 2004-06-05

Audio
Format: MPEG Audio
Format version: Version 1 / Layer 3
Codec ID: 55
Codec ID/Hint: MP3
Duration: 58mn 29s
Bit rate mode: CBR
Bit rate: 128 Kbps
Minimum bit rate: 128 Kbps
Channel(s): 2 channels
Sampling rate: 48.0 KHz
Resolution: 16 bits
Stream size: 53.6 MiB
Writing library: LAME3.97
Encoding settings: CBR


===============================

Some of the other rather spiffing shows available now and always if you signup free @ www.TheBox.bz:

Comedy: The Office, Peep Show, Coupling, Chef, Fawlty Towers, Only Fools and Horses, The IT Crowd, Brass Eye, Nathan Barley, Young Ones, Monty Python, Blackadder, Alan Partridge, Father Ted, Coupling, Little Britain, Mr Bean, Extras, Green Wing, Mighty Boosh

Drama: Casualty, Holby City, The Bill, Hustle, Skins, Shameless, Ashes To Ashes

Entertainment: Faking It, Derren Brown, Scrapheap Challenge, Strictly Come Dancing, Wife Swap

Game/Quiz Shows: Whose Line Is It Anyway?, Have I Got News For You, Deal Or No Deal (UK), Q.I.

Education/Documentary: Planet Earth, Horizon, Panorama, Mark Thomas (Comedy) Product

Food: Hell's Kitchen, Jamie Oliver, The F Word, Kitchen Nightmares, Masterchef, Great British Menu, Gordon Ramsay's Cookalong

Home/Property/Garden: Property Ladder, How Clean Is Your House?, Changing Rooms, Grand Designs, Homes Under The Hammer, To Buy Or Not To Buy

Motoring: Top Gear, Fifth Gear

Music: Top Of The Pops, Jools Holland, Glastonbury

Reality: Big Brother, Celebrity Big Brother, I'm a Celebrity - Get Me Out of Here!, Any Dream Will Do, Grease, Pop Idol, Wife Swap, X Factor, Badger Or Bust, Apprentice UK, Dragons' Den, Britain's Got Talent

Sci-Fi: Doctor Who, Red Dwarf, Torchwood, Primeval

Sport: Football (Soccer), Cricket, Rugby, Snooker, Darts, Formula One (F1GP)

Soaps: Eastenders, Coronation Street, Emmerdale, Neighbours, Hollyoaks

Style/Fashion: What Not To Wear, Project Catwalk

Kids: Teletubbies, Blue Peter, Tikkabilla, Andy Pandy, Postman Pat, Shoebox Zoo, Brum, Bob The Builder, Young Dracula, Sarah Jane Adventures, Shaun The Sheep

related torrents

Torrent name

health leech seeds Size
 

comments (0)

Main Menu