Funny clips

Bubble Gang fri11sep2009 PHILIPPINES tvrip (TAGALOG) [tukmol101]

  • Download 5x Faster
  • Download torrent
  • Direct Download
  • Rate this torrent +  |  -
Bubble Gang fri11sep2009 PHILIPPINES tvrip (TAGALOG) [tukmol101]

Anonymous and Free Direct Download 300GB+


Torrent info

Name:Bubble Gang fri11sep2009 PHILIPPINES tvrip (TAGALOG) [tukmol101]

Total Size: 427.03 MB

Magnet: Magnet Link

Seeds: 0

Leechers: 1

Stream: Watch Online @ Movie4u

Last Updated: 2017-01-28 02:16:16 (Update Now)

Torrent added: 2009-09-11 19:33:09



VPN For Torrents

Torrent Files List


Bubble Gang.mp4 (Size: 427.03 MB) (Files: 3)

 Bubble Gang.mp4

427.03 MB

 Bubble Gang.nfo

3.16 KB

 Torrent downloaded from Demonoid.com.txt

0.05 KB
 

tracker

leech seeds
 

Torrent description

read nfo for media info
Screen Shots1
2
3
4
5
6
http://www.demonoid.com/files/?uid=5434647&seeded=2
http://www.mininova.org/user/tukmol101
General
Complete name : Bubble Gang.mp4
Format : MPEG-4
Format profile : Base Media / Version 2
Codec ID : mp42
File size : 427 MiB
Duration : 48mn 23s
Overall bit rate : 1 234 Kbps
Encoded date : UTC 2009-09-11 19:47:11
Tagged date : UTC 2009-09-11 21:19:21
Writing application : HandBrake 0.9.3 2008112300

Video
ID : 1
Format : AVC
Format/Info : Advanced Video Codec
Format profile : [email protected]
Format settings, CABAC : Yes
Format settings, ReFrames : 2 frames
Codec ID : avc1
Codec ID/Info : Advanced Video Coding
Duration : 48mn 23s
Bit rate mode : Variable
Bit rate : 1 100 Kbps
Width : 608 pixels
Height : 448 pixels
Display aspect ratio : 4:3
Frame rate mode : Variable
Frame rate : 29.970 fps
Minimum frame rate : 29.963 fps
Maximum frame rate : 30.000 fps
Resolution : 24 bits
Colorimetry : 4:2:0
Scan type : Progressive
Bits/(Pixel*Frame) : 0.135
Stream size : 381 MiB (89%)
Writing library : x264 core 65
Encoding settings : cabac=1 / ref=2 / deblock=1:0:0 / analyse=0x1:0x111 / me=umh / subme=6 / psy_rd=1.0:0.0 / mixed_ref=0 / me_range=16 / chroma_me=1 / trellis=0 / 8x8dct=0 / cqm=0 / deadzone=21,11 / chroma_qp_offset=-2 / threads=3 / nr=0 / decimate=1 / mbaff=0 / bframes=2 / b_pyramid=0 / b_adapt=1 / b_bias=0 / direct=1 / wpredb=0 / keyint=300 / keyint_min=30 / scenecut=40(pre) / rc=2pass / bitrate=1100 / ratetol=1.0 / qcomp=0.60 / qpmin=10 / qpmax=51 / qpstep=4 / cplxblur=20.0 / qblur=0.5 / ip_ratio=1.40 / pb_ratio=1.30 / aq=1:1.00
Encoded date : UTC 2009-09-11 19:47:11
Tagged date : UTC 2009-09-11 21:19:21

Audio
ID : 2
Format : AAC
Format/Info : Advanced Audio Codec
Format version : Version 4
Format profile : LC
Format settings, SBR : No
Codec ID : 40
Duration : 48mn 23s
Bit rate mode : Variable
Bit rate : 128 Kbps
Maximum bit rate : 217 Kbps
Channel(s) : 2 channels
Channel positions : L R
Sampling rate : 48.0 KHz
Resolution : 16 bits
Stream size : 44.3 MiB (10%)
Encoded date : UTC 2009-09-11 19:47:11
Tagged date : UTC 2009-09-11 21:19:17


related torrents

Torrent name

health leech seeds Size
 


comments (0)

Main Menu