Documentary

Maddie Mccain The True behind the lie [english sub] (A verdade da mentira)

  • Download 5x Faster
  • Download torrent
  • Direct Download
  • Rate this torrent +  |  -
Maddie Mccain The True behind the lie [english sub] (A verdade da mentira)

Free and Direct Download with Usenet 300GB+ free


Torrent info

Name:Maddie Mccain The True behind the lie [english sub] (A verdade da mentira)

Total Size: 418.35 MB

Magnet: Magnet Link

Seeds: 0

Leechers: 0

Stream: Watch Online @ Movie4u

Last Updated: 2010-12-03 18:58:28 (Update Now)

Torrent added: 2009-09-11 17:34:32




Torrent Files List


A.Verdade.da.Mentira.(The.Truth.of.Lie).Maddie.Mccann.AVI (Size: 418.35 MB) (Files: 3)

 A.Verdade.da.Mentira.(The.Truth.of.Lie).Maddie.Mccann.AVI

414.69 MB

 Maddie - a verdade da mentira.pdf

3.59 MB

 A.Verdade.da.Mentira.(The.Truth.of.Lie).Maddie.Mccann.srt

64.99 KB
 

Announce URL: http://tracker.torrentleech.org:2710/a/5c7286a73225c1989942ad7e9b9a3f36/announce

Torrent description

Including the book

Format : AVI
Format/Info : Audio Video Interleave
File size : 415 MiB
Duration : 50mn 43s
Overall bit rate : 1 143 Kbps

Video
ID : 0
Format : MPEG-4 Visual
Format profile : [email protected]
Format settings, BVOP : No
Format settings, QPel : No
Format settings, GMC : No warppoints
Format settings, Matrix : Default (H.263)
Codec ID : XVID
Codec ID/Hint : XviD
Duration : 50mn 42s
Bit rate : 1 008 Kbps
Width : 720 pixels
Height : 576 pixels
Display aspect ratio : 5:4
Frame rate : 25.000 fps
Standard : PAL
Resolution : 24 bits
Colorimetry : 4:2:0
Scan type : Progressive
Bits/(Pixel*Frame) : 0.097
Stream size : 366 MiB (88%)
Writing library : ZJMedia MPEG Encoder

Audio
ID : 1
Format : MPEG Audio
Format version : Version 1
Format profile : Layer 3
Codec ID : 55
Codec ID/Hint : MP3
Duration : 50mn 43s
Bit rate mode : Constant
Bit rate : 128 Kbps
Channel(s) : 2 channels
Sampling rate : 44.1 KHz
Resolution : 16 bits
Stream size : 46.4 MiB (11%)
Alignment : Split accross interleaves
Interleave, duration : 1000 ms (24.99 video frames)

related torrents

Torrent name

health leech seeds Size
 

comments (0)

Main Menu