Sci-Fi

Deep Impact

  • Download 5x Faster
  • Download torrent
  • Direct Download
  • Rate this torrent +  |  -
Deep Impact

Anonymous and Direct Download 300GB+ free


Torrent info

Name:Deep Impact

Total Size: 4.37 GB

Magnet: Magnet Link

Seeds: 0

Leechers: 3

Stream: Watch Online @ Movie4u

Last Updated: 2011-05-13 21:02:58 (Update Now)

Torrent added: 2009-09-11 15:40:29




Torrent Files List


Deep Impact.mkv (Size: 4.37 GB) (Files: 3)

 Deep Impact.mkv

4.37 GB

 Deep Impact.nfo

0.08 KB

 Deep Impact.srt

98.24 KB
 

Announce URL: http://tracker.publicbt.com/announce

Torrent description

El subtítulo en español latino se encuentra dentro de la carpeta de la película.
The spanish latin subtitle is inside the folder of the movie.

--------------------------------------------------------------------------------

Deep impact
http://www.imdb.com/title/tt0120647/
1280*544 @ 4523 Kbps
Ac3 640 Kbps
En

--------------------------------------------------------------------------------

General

Format : Matroska
File size : 4.37 GiB
Duration : 2h 1mn
Overall bit rate : 5 165 Kbps
Encoded date : UTC 2009-09-04 09:54:58
Writing application : mkvmerge v2.9.7 (\\'Tenderness\\') built on Jul 1 2009 18:43:35
Writing library : libebml v0.7.7 + libmatroska v0.8.1

Video
ID : 1
Format : AVC
Format/Info : Advanced Video Codec
Format profile : [email protected]
Format settings, CABAC : Yes
Format settings, ReFrames : 5 frames
Muxing mode : Container [email protected]
Codec ID : V_MPEG4/ISO/AVC
Duration : 2h 1mn
Bit rate : 4 422 Kbps
Nominal bit rate : 4 523 Kbps
Width : 1 280 pixels
Height : 544 pixels
Display aspect ratio : 2.35
Frame rate : 23.976 fps
Resolution : 24 bits
Colorimetry : 4:2:0
Scan type : Progressive
Bits/(Pixel*Frame) : 0.265
Stream size : 3.74 GiB (86%)
Writing library : x264 core 75 r1247 b3efbe5
Language : English

Audio
ID : 2
Format : AC-3
Format/Info : Audio Coding 3
Codec ID : A_AC3
Duration : 2h 1mn
Bit rate mode : Constant
Bit rate : 640 Kbps
Channel(s) : 6 channels
Channel positions : Front: L C R, Surround: L R, LFE
Sampling rate : 48.0 KHz
Stream size : 555 MiB (12%)
Title : Ac3 640 Kbps
Language : English

Text
ID : 3
Format : UTF-8
Codec ID : S_TEXT/UTF8
Codec ID/Info : UTF-8 Plain Text
Language : English

related torrents

Torrent name

health leech seeds Size

Deep Impact 1998

0 0 701.65 MB 0
 


comments (0)

Main Menu