Documentary

Nichtraucher in 5 Stunden COMPLETE German DOKU DVDRiP XViD

  • Download 5x Faster
  • Download torrent
  • Direct Download
  • Rate this torrent +  |  -
Nichtraucher in 5 Stunden COMPLETE German DOKU DVDRiP XViD

Anonymous and free Direct Download 300GB+


Torrent info

Name:Nichtraucher in 5 Stunden COMPLETE German DOKU DVDRiP XViD

Total Size: 1.72 GB

Magnet: Magnet Link

Seeds: 0

Leechers: 0

Stream: Watch Online @ Movie4u

Last Updated: 2015-10-01 17:45:07 (Update Now)

Torrent added: 2009-09-11 14:41:20



VPN For Torrents

Torrent Files List


Nichtraucher in 5 Stunden XviD (Size: 1.72 GB) (Files: 8)

 Nichtraucher in 5 Stunden XviD

  Nichtraucher.in.5.Stunden.DVDRIP.XviD.German5.avi

356.14 MB

  Nichtraucher.in.5.Stunden.DVDRIP.XviD.German4.avi

352.28 MB

  Nichtraucher.in.5.Stunden.DVDRIP.XviD.German3.avi

349.96 MB

  Nichtraucher.in.5.Stunden.DVDRIP.XviD.German2.avi

349.00 MB

  Nichtraucher.in.5.Stunden.DVDRIP.XviD.German1.avi

348.96 MB

 Nichtraucher in 5 Stunden Das Seminar Back.jpg

14.23 KB

 Nichtraucher in 5 Stunden Das Seminar Front.jpg

12.03 KB

 Nichtraucher in 5 Stunden Das Seminar.txt

2.17 KB
 

tracker

leech seeds
 

Torrent description

Nichtraucher in 5 Stunden

Werden Sie wieder Nichtraucher - ohne Druck oder Zwang, ohne erhobenen Zeigefinger. Keine Besserwisserei, keine Verbote - und vor allem: keine militanten Nichtraucher-Sprüche!

Erfahren Sie mit Dr. Stefan Frädrich in fünf Stunden auf 2 DVDs alles Wichtige übers Rauchen: Wer versteht, wie das Rauchen biologisch und psychologisch funktioniert, braucht zum Aufhören keine Willenskraft. Dann ist es einfach, Nichtraucher zu werden und zu bleiben: ohne Pillen, Hokuspokus oder Psycho-Quatsch. Fühlen Sie sich wie früher, bevor man Sie in die Nikotinfalle gelockt hat.

Format : MPEG-4 Visual
Format profile : Streaming [email protected]
Format settings, BVOP : Ja
Format settings, QPel : Nein
Format settings, GMC : No warppoints
Format settings, Matrix : Default
Muxing mode : Packed bitstream
Codec ID : XVID
Codec ID/Hint : XviD
Duration : 44min
Bitrate : 861 Kbps
Breite : 480 Pixel
Hhe : 352 Pixel
Bildseitenverhltnis : 4/3
Bildwiederholungsrate : 25,000 FPS
Auflsung : 24 bits
Colorimetry : 4:2:0
Scan type : Progressive
Bits/(Pixel*Frame) : 0.204
Stream size : 274 MiB (79)
verwendete Encoder-Bibliothek : XviD 1.1.2 (UTC 2006-11-01)

Audio
Format : AC-3
Format/Info : Audio Coding 3
Codec ID : 2000
Duration : 44min
Bitraten-Modus : Constant
Bitrate : 224 Kbps
Kanle : 2 Kanle
Channel positions : L R
Samplingrate : 48,0 KHz
Stream size : 71,4 MiB (20)
Alignment : Split accross interleaves
Interleave, duration : 40 ms (1,00 video frame)
Interleave, preload duration : 500 ms

related torrents

Torrent name

health leech seeds Size
 


comments (0)

Main Menu