Comics

Shrek [2001] 1264x704 HD Mp4 H264 AAC 5 1 ch 3Li

  • Download 5x Faster
  • Download torrent
  • Direct Download
  • Rate this torrent +  |  -
Shrek [2001] 1264x704 HD Mp4 H264 AAC 5 1 ch 3Li

Anonymous and Free Direct Download


Torrent info

Name:Shrek [2001] 1264x704 HD Mp4 H264 AAC 5 1 ch 3Li

Total Size: 1.36 GB

Magnet: Magnet Link

Seeds: 0

Leechers: 2

Stream: Watch Online @ Movie4u

Last Updated: 2016-11-08 04:01:58 (Update Now)

Torrent added: 2009-09-11 14:40:34



VPN For Torrents

Torrent Files List


Shrek.mp4 (Size: 1.36 GB) (Files: 13)

 Shrek.mp4

1.36 GB

 Shrek.mp4.txt

6.10 KB

 snapshot20090911133336.jpg

162.70 KB

 snapshot20090911133417.jpg

124.89 KB

 snapshot20090911133532.jpg

248.10 KB

 snapshot20090911133647.jpg

118.29 KB

 snapshot20090911133742.jpg

107.54 KB

 snapshot20090911133819.jpg

224.95 KB

 snapshot20090911133955.jpg

122.17 KB

 snapshot20090911134016.jpg

173.47 KB

 snapshot20090911134249.jpg

168.79 KB

 Torrent downloaded from Demonoid.com.txt

0.05 KB

 tracked_by_h33t_com.txt

0.02 KB
 

tracker

leech seeds
 

Torrent description

General
Complete name : Shrek.mp4
Format : MPEG-4
Format profile : Base Media
Codec ID : isom
File size : 1.36 GiB
Duration : 1h 29mn
Overall bit rate : 2 171 Kbps
Encoded date : UTC 2009-09-10 09:15:00
Tagged date : UTC 2009-09-10 09:15:00
Writing application : Yamb 2.1.0.0 [http://yamb.unite-video.com]

Video
ID : 1
Format : AVC
Format/Info : Advanced Video Codec
Format profile : [email protected]
Format settings, CABAC : Yes
Format settings, ReFrames : 3 frames
Codec ID : avc1
Codec ID/Info : Advanced Video Coding
Duration : 1h 29mn
Bit rate mode : Variable
Bit rate : 1 986 Kbps
Maximum bit rate : 6 354 Kbps
Width : 1 264 pixels
Height : 704 pixels
Display aspect ratio : 16:9
Frame rate mode : Constant
Frame rate : 23.976 fps
Resolution : 24 bits
Colorimetry : 4:2:0
Scan type : Progressive
Bits/(Pixel*Frame) : 0.093
Stream size : 1.25 GiB (91%)
Writing library : x264 core 68 r1183M f21daff
Encoding settings : cabac=1 / ref=3 / deblock=1:0:0 / analyse=0x1:0 / me=hex / subme=6 / psy_rd=1.0:0.0 / mixed_ref=1 / me_range=16 / chroma_me=1 / trellis=1 / 8x8dct=0 / cqm=0 / deadzone=21,11 / chroma_qp_offset=-2 / threads=3 / nr=0 / decimate=1 / mbaff=0 / bframes=2 / b_pyramid=1 / b_adapt=1 / b_bias=0 / direct=2 / wpredb=0 / keyint=250 / keyint_min=25 / scenecut=40 / rc=2pass / bitrate=1986 / ratetol=1.0 / qcomp=0.60 / qpmin=10 / qpmax=51 / qpstep=4 / cplxblur=20.0 / qblur=0.5 / ip_ratio=1.40 / pb_ratio=1.30 / aq=1:1.00
Encoded date : UTC 2009-09-10 08:33:59
Tagged date : UTC 2009-09-10 09:15:53

Audio
ID : 2
Format : AAC
Format/Info : Advanced Audio Codec
Format version : Version 4
Format profile : LC
Format settings, SBR : No
Codec ID : 40
Duration : 1h 27mn
Bit rate mode : Variable
Bit rate : 187 Kbps
Maximum bit rate : 271 Kbps
Channel(s) : 6 channels
Channel positions : Front: L C R, Rear: L R, LFE
Sampling rate : 48.0 KHz
Resolution : 16 bits
Stream size : 116 MiB (8%)
Encoded date : UTC 2009-09-10 09:15:46
Tagged date : UTC 2009-09-10 09:15:53

related torrents

Torrent name

health leech seeds Size
 


comments (0)

Main Menu