Other

Yaarana (1981)Hindi DVDRip XviD ~ Smeet

  • Download 5x Faster
  • Download torrent
  • Direct Download
  • Rate this torrent +  |  -
Yaarana (1981)Hindi DVDRip XviD ~ Smeet

Free and Direct Download with Usenet 300GB+ free


Torrent info

Name:Yaarana (1981)Hindi DVDRip XviD ~ Smeet

Total Size: 801.30 MB

Magnet: Magnet Link

Seeds: 1

Leechers: 0

Stream: Watch Online @ Movie4u

Last Updated: 2016-12-24 05:43:37 (Update Now)

Torrent added: 2009-09-11 13:35:32




Torrent Files List


smeet.nfo (Size: 801.30 MB) (Files: 2)

 smeet.nfo

7.18 KB

 Yaarana (1981)Hindi-DVDRip-XviD ~ Smeet.avi

801.30 MB
 

tracker

leech seeds
 

Torrent description


################## TM
##^^^^^^^^^^^^^^^^####
############## #^^^^^^^^^^^^^^^^^^^##
###### #### #########^^^^^# #^^^^^#########^^^^^#
###### ####### ###########^^^# #^^^^^^^^^^^^^#^^^^^#
####### ####### ############^^## #^^^^^^^^^^^^^#^^^^^#
################################# ############^^^###^^^^^^^^^^^^^#^^^^^#
############################################^#^^#^^^^^^^^^^^^^^^^#^^^^^#
#####################################^^^^^^^^#^^#########^^^#######^^^^#####
####################################^^^^^^^^^##^^^^^^^^^##^^#^^^^^^^^^^^^^^##
####################################^^^^^^^^^^###^^^^^^^^#^^#^^^^^^^^^^^^^^^##
######################### ##########^^^^^####^^##^^^^^^^^#^^#^^^^^^^^^^^^^^^##
####################################^########^^#^#########^^######^^^^^######
#############################################^^#^#^^^^^^^^^^^^^^^#^^^^^#
##############################################^#^#^^^^^^^^^^^^^^^#^^^^^#
##############################################^#^#^^^^^^^^^^^^^^^#^^^^^#
##################################^^^^^^^^^^#^#^^^^^^^^^^^^^^^#^^^^^#
############################################^^^#^##^^^^^^^^^^^^^^#^^^^^#
##############################################^#^^^###^^^^^^^^^^^#^^^^^#
#################################################^^^^#^^^^^^^^^^^#^^^^^#
###############################################^######^^^^^^^^^^^#^^^^^#
###################### ###### ##############^^^^^^^^^^^########^^^^^#
###################### ###### ##############^^##^^^^^^^# #^^^^^^#
###################### ###### ##################^^^^^^^# #^^^^^^#
############## ############### ######^^# ########
############## ############### ###
#############
MEANS QUALITY

=======================================================
= Yaarana (1981) =
=======================================================

|##############################################################################|
| |
|GENERAL INFORMATION |
|=================== |
|Format : AVI |
|Format/Info : Audio Video Interleave |
|Format profile : OpenDML |
|File size : 801 MiB |
|Duration : 2h 11mn |
|Overall bit rate : 849 Kbps |
|Language : Hindi Source: DVD |
|SUBTITLE : No |
|GENRE : Drama | Musical | Romance | Action |
|IMDB LINK : http://www.imdb.com/title/tt0083349/ |
|IMDB RATING : 7.2/10 |
|RIPPER : SMEET |
|##############################################################################|

|##############################################################################|
| |
|Video |
|Format : MPEG-4 Visual |
|Format settings, Matrix : Custom |
|Codec ID : XVID |
|Codec ID/Hint : XviD |
|Duration : 2h 11mns |
|Width : 592 pixels |
|Height : 448 pixels |
|Display aspect ratio : 4/3 |
|Frame rate : 29.970 fps |
|Resolution : 24 bits |
|Colorimetry : 4:2:0 |
|Scan type : Progressive |
|Bits/(Pixel*Frame) : 0.092 |
|Stream size : 692 MiB (86%) |
|Writing library : XviD 1.2.1 (UTC 2008-12-04) rter. |
|##############################################################################|
|Audio |
|Format : MPEG Audio |
|Format version : Version 1 |
|Format profile : Layer 3 |
|Codec ID : 55 |
|Codec ID/Hint : MP3 |
|Duration : 2h 11mn |
|Bit rate mode : Constant |
|Bit rate : 112 Kbps |
|Channel(s) : 2 channels |
|Sampling rate : 44.1 KHz |
|Resolution : 16 bits |
|Stream size : 106 MiB (13%) |
|Alignment : Aligned on interleaves |
|Interleave, duration : 906 ms (27.15 video frames) |
|Interleave, preload duration : 208 ms |
|Title : yarana~smeet T80 3_2ch 448Kbps DELAY 0msss |
|Writing library : LAME3.98r |
|Encoding settings : -m j -V 4 -q 2 -lowpass 15.6 -b 112 |
|Screenshot : Yaarana (1981)Hindi DVDRip XviD ~ Smeet preview 0 |
| ALL MY RELEAASES AVAILABLE AT http://thepiratebay.org/user/bonkingph/ |
| http://www.ahashare.com/account-details.php?id=28583 |
|##############################################################################|
www.AhaShare.Com




related torrents

Torrent name

health leech seeds Size
 

comments (0)

Main Menu