Action

Driven 2001 DvDrip Avi Xvid GuySmiley [

  • Download 5x Faster
  • Download torrent
  • Direct Download
  • Rate this torrent +  |  -
Driven 2001 DvDrip Avi Xvid GuySmiley [

Anonymous and Free Direct Download


Torrent info

Name:Driven 2001 DvDrip Avi Xvid GuySmiley [

Total Size: 807.98 MB

Magnet: Magnet Link

Seeds: 0

Leechers: 0

Stream: Watch Online @ Movie4u

Last Updated: 2011-07-18 09:22:05 (Update Now)

Torrent added: 2009-09-11 06:34:08



VPN For Torrents

Torrent Files List


Driven -2001 DvDrip Avi Xvid -GuySmiley.nfo (Size: 807.98 MB) (Files: 59)

 Driven -2001 DvDrip Avi Xvid -GuySmiley.nfo

2.93 KB

 Driven -2001 DvDrip Avi Xvid -GuySmiley.r00

14.31 MB

 Driven -2001 DvDrip Avi Xvid -GuySmiley.r01

14.31 MB

 Driven -2001 DvDrip Avi Xvid -GuySmiley.r02

14.31 MB

 Driven -2001 DvDrip Avi Xvid -GuySmiley.r03

14.31 MB

 Driven -2001 DvDrip Avi Xvid -GuySmiley.r04

14.31 MB

 Driven -2001 DvDrip Avi Xvid -GuySmiley.r05

14.31 MB

 Driven -2001 DvDrip Avi Xvid -GuySmiley.r06

14.31 MB

 Driven -2001 DvDrip Avi Xvid -GuySmiley.r07

14.31 MB

 Driven -2001 DvDrip Avi Xvid -GuySmiley.r08

14.31 MB

 Driven -2001 DvDrip Avi Xvid -GuySmiley.r09

14.31 MB

 Driven -2001 DvDrip Avi Xvid -GuySmiley.r10

14.31 MB

 Driven -2001 DvDrip Avi Xvid -GuySmiley.r11

14.31 MB

 Driven -2001 DvDrip Avi Xvid -GuySmiley.r12

14.31 MB

 Driven -2001 DvDrip Avi Xvid -GuySmiley.r13

14.31 MB

 Driven -2001 DvDrip Avi Xvid -GuySmiley.r14

14.31 MB

 Driven -2001 DvDrip Avi Xvid -GuySmiley.r15

14.31 MB

 Driven -2001 DvDrip Avi Xvid -GuySmiley.r16

14.31 MB

 Driven -2001 DvDrip Avi Xvid -GuySmiley.r17

14.31 MB

 Driven -2001 DvDrip Avi Xvid -GuySmiley.r18

14.31 MB

 Driven -2001 DvDrip Avi Xvid -GuySmiley.r19

14.31 MB

 Driven -2001 DvDrip Avi Xvid -GuySmiley.r20

14.31 MB

 Driven -2001 DvDrip Avi Xvid -GuySmiley.r21

14.31 MB

 Driven -2001 DvDrip Avi Xvid -GuySmiley.r22

14.31 MB

 Driven -2001 DvDrip Avi Xvid -GuySmiley.r23

14.31 MB

 Driven -2001 DvDrip Avi Xvid -GuySmiley.r24

14.31 MB

 Driven -2001 DvDrip Avi Xvid -GuySmiley.r25

14.31 MB

 Driven -2001 DvDrip Avi Xvid -GuySmiley.r26

14.31 MB

 Driven -2001 DvDrip Avi Xvid -GuySmiley.r27

14.31 MB

 Driven -2001 DvDrip Avi Xvid -GuySmiley.r28

14.31 MB

 Driven -2001 DvDrip Avi Xvid -GuySmiley.r29

14.31 MB

 Driven -2001 DvDrip Avi Xvid -GuySmiley.r30

14.31 MB

 Driven -2001 DvDrip Avi Xvid -GuySmiley.r31

14.31 MB

 Driven -2001 DvDrip Avi Xvid -GuySmiley.r32

14.31 MB

 Driven -2001 DvDrip Avi Xvid -GuySmiley.r33

14.31 MB

 Driven -2001 DvDrip Avi Xvid -GuySmiley.r34

14.31 MB

 Driven -2001 DvDrip Avi Xvid -GuySmiley.r35

14.31 MB

 Driven -2001 DvDrip Avi Xvid -GuySmiley.r36

14.31 MB

 Driven -2001 DvDrip Avi Xvid -GuySmiley.r37

14.31 MB

 Driven -2001 DvDrip Avi Xvid -GuySmiley.r38

14.31 MB

 Driven -2001 DvDrip Avi Xvid -GuySmiley.r39

14.31 MB

 Driven -2001 DvDrip Avi Xvid -GuySmiley.r40

14.31 MB

 Driven -2001 DvDrip Avi Xvid -GuySmiley.r41

14.31 MB

 Driven -2001 DvDrip Avi Xvid -GuySmiley.r42

14.31 MB

 Driven -2001 DvDrip Avi Xvid -GuySmiley.r43

14.31 MB

 Driven -2001 DvDrip Avi Xvid -GuySmiley.r44

14.31 MB

 Driven -2001 DvDrip Avi Xvid -GuySmiley.r45

14.31 MB

 Driven -2001 DvDrip Avi Xvid -GuySmiley.r46

14.31 MB

 Driven -2001 DvDrip Avi Xvid -GuySmiley.r47

14.31 MB

 Driven -2001 DvDrip Avi Xvid -GuySmiley.r48

14.31 MB

 Driven -2001 DvDrip Avi Xvid -GuySmiley.r49

14.31 MB

 Driven -2001 DvDrip Avi Xvid -GuySmiley.r50

14.31 MB

 Driven -2001 DvDrip Avi Xvid -GuySmiley.r51

14.31 MB

 Driven -2001 DvDrip Avi Xvid -GuySmiley.r52

14.31 MB

 Driven -2001 DvDrip Avi Xvid -GuySmiley.r53

14.31 MB

 Driven -2001 DvDrip Avi Xvid -GuySmiley.r54

14.31 MB

 Driven -2001 DvDrip Avi Xvid -GuySmiley.r55

6.89 MB

 Driven -2001 DvDrip Avi Xvid -GuySmiley.rar

14.31 MB

 Driven -2001 DvDrip Avi Xvid -GuySmiley.sfv

7.73 KB
 

Announce URL: http://tracker.ilovetorrents.com/announce.php

Torrent description

General
-----------
Format : AVI
Format/Info : Audio Video Interleave
File size : 800 MiB
Duration : 1h 53mn
Overall bit rate : 985 Kbps
Writing application : VirtualDubMod 1.5.4.1 (build 2178/release)
Writing library : VirtualDubMod build 2178/release

Video
Format : MPEG-4 Visual
Format profile : Streaming [email protected]
Format settings, BVOP : Yes
Format settings, QPel : No
Format settings, GMC : No warppoints
Format settings, Matrix : Custom
Codec ID : XVID
Codec ID/Hint : XviD
Duration : 1h 53mn
Bit rate : 855 Kbps
Width : 544 pixels
Height : 224 pixels
Display aspect ratio : 2.429
Frame rate : 25.000 fps
Resolution : 24 bits
Colorimetry : 4:2:0
Scan type : Progressive
Bits/(Pixel*Frame) : 0.281
Stream size : 694 MiB (87%)
Writing library : XviD 1.2.1 (UTC 2008-12-04)

Audio
Format : MPEG Audio
Format version : Version 1
Format profile : Layer 3
Codec ID : 55
Codec ID/Hint : MP3
Duration : 1h 52mn
Bit rate mode : Variable
Bit rate : 118 Kbps
Minimum bit rate : 128 Kbps
Channel(s) : 2 channels
Sampling rate : 48.0 KHz
Resolution : 16 bits
Stream size : 95.1 MiB (12%)
Alignment : Aligned on interleaves
Interleave, duration : 24 ms (0.61 video frame)
Interleave, preload duration : 155 ms
Writing library : LAME3.98r
Encoding settings : ABR
Language : English
-------------------------------------------------------------------
Plot:Talented rookie race-car driver Jimmy Bly has started losing his
focus and begins to slip in the race rankings. It's no wonder, with
the immense pressure being shoveled on him by his overly ambitious
promoter brother as well as Bly's romance with his arch rival's
girlfriend Sophia. With much riding on Bly, car owner Carl Henry
brings former racing star Joe Tanto on board to help Bly. To drive
Bly back to the top of the rankings, Tanto must first deal with the
emotional scars left over from a tragic racing accident which nearly
took his life.
-------------------------------------------------------------------------
IMDB:http://www.imdb.com/title/tt0132245/

related torrents

Torrent name

health leech seeds Size

Driven 2001 xvid[

1 0 1.76 GB 0
 


comments (0)

Main Menu