Documentary

The Soviet Story 2008 DivX [

  • Download 5x Faster
  • Download torrent
  • Direct Download
  • Rate this torrent +  |  -
The Soviet Story 2008 DivX [

Free and Direct Download with Usenet.nl 300GB+ free


Torrent info

Name:The Soviet Story 2008 DivX [

Total Size: 792.01 MB

Magnet: Magnet Link

Seeds: 0

Leechers: 0

Stream: Watch Online @ Movie4u

Last Updated: 2015-09-05 12:00:38 (Update Now)

Torrent added: 2009-09-11 06:34:05





Torrent Files List


info.nfo (Size: 792.01 MB) (Files: 59)

 info.nfo

1.51 KB

 The Soviet Story.part01.rar

14.31 MB

 The Soviet Story.part01.sfv

5.72 KB

 The Soviet Story.part02.rar

14.31 MB

 The Soviet Story.part03.rar

14.31 MB

 The Soviet Story.part04.rar

14.31 MB

 The Soviet Story.part05.rar

14.31 MB

 The Soviet Story.part06.rar

14.31 MB

 The Soviet Story.part07.rar

14.31 MB

 The Soviet Story.part08.rar

14.31 MB

 The Soviet Story.part09.rar

14.31 MB

 The Soviet Story.part10.rar

14.31 MB

 The Soviet Story.part11.rar

14.31 MB

 The Soviet Story.part12.rar

14.31 MB

 The Soviet Story.part13.rar

14.31 MB

 The Soviet Story.part14.rar

14.31 MB

 The Soviet Story.part15.rar

14.31 MB

 The Soviet Story.part16.rar

14.31 MB

 The Soviet Story.part17.rar

14.31 MB

 The Soviet Story.part18.rar

14.31 MB

 The Soviet Story.part19.rar

14.31 MB

 The Soviet Story.part20.rar

14.31 MB

 The Soviet Story.part21.rar

14.31 MB

 The Soviet Story.part22.rar

14.31 MB

 The Soviet Story.part23.rar

14.31 MB

 The Soviet Story.part24.rar

14.31 MB

 The Soviet Story.part25.rar

14.31 MB

 The Soviet Story.part26.rar

14.31 MB

 The Soviet Story.part27.rar

14.31 MB

 The Soviet Story.part28.rar

14.31 MB

 The Soviet Story.part29.rar

14.31 MB

 The Soviet Story.part30.rar

14.31 MB

 The Soviet Story.part31.rar

14.31 MB

 The Soviet Story.part32.rar

14.31 MB

 The Soviet Story.part33.rar

14.31 MB

 The Soviet Story.part34.rar

14.31 MB

 The Soviet Story.part35.rar

14.31 MB

 The Soviet Story.part36.rar

14.31 MB

 The Soviet Story.part37.rar

14.31 MB

 The Soviet Story.part38.rar

14.31 MB

 The Soviet Story.part39.rar

14.31 MB

 The Soviet Story.part40.rar

14.31 MB

 The Soviet Story.part41.rar

14.31 MB

 The Soviet Story.part42.rar

14.31 MB

 The Soviet Story.part43.rar

14.31 MB

 The Soviet Story.part44.rar

14.31 MB

 The Soviet Story.part45.rar

14.31 MB

 The Soviet Story.part46.rar

14.31 MB

 The Soviet Story.part47.rar

14.31 MB

 The Soviet Story.part48.rar

14.31 MB

 The Soviet Story.part49.rar

14.31 MB

 The Soviet Story.part50.rar

14.31 MB

 The Soviet Story.part51.rar

14.31 MB

 The Soviet Story.part52.rar

14.31 MB

 The Soviet Story.part53.rar

14.31 MB

 The Soviet Story.part54.rar

14.31 MB

 The Soviet Story.part55.rar

14.31 MB

 The Soviet Story.part56.rar

5.20 MB

 The Soviet Story.srt

13.00 KB
 

tracker

leech seeds
 

Torrent description

=================================
The Soviet Story
=================================

Size.........: 822 MB
Video Codec..: DivX
Frame Size...: 720x576
Runtime......: 86 min
Genre........: Documentary
Audio........: English
Subtitles....: Latvian
Upped_by.....: Zigmunds

IMDB ....: http://www.imdb.com/title/tt1305871/

URL:
http://www.sovietstory.com

==================================


The Soviet Story is a story of an Allied power, which helped the Nazis to fight Jews and which slaughtered its own people on an industrial scale. Assisted by the West, this power triumphed on May 9th, 1945. Its crimes were made taboo, and the complete story of Europe s most murderous regime has never been told. Until now


FILM SYNOPSIS

The film tells the story of the Soviet regime.

- The Great Famine in Ukraine (1932/33)
- The Katyn massacre (1940)
- The SS-KGB partnership [in the late 1930s the KGB was called NKVD, more info>]
- Soviet mass deportations
- Medical experiments in the GULAG.

These are just a few of the subjects covered in the film.

The Soviet Story also discusses the impact of the Soviet legacy on modern day Europe. Listen to experts and European MPs discussing the implications of a selective attitude towards mass murder; and meet a woman describing the burial of her new born son in a GULAG concentration camp.
The Soviet Story is a story of pain, injustice and realpolitik .

Tech Details:
General
Complete name : C:\The Soviet Story.avi
Format : AVI
Format/Info : Audio Video Interleave
File size : 822 MiB
Duration : 1h 25mn
Overall bit rate : 1 340 Kbps

Video
ID : 0
Format : MPEG-4 Visual
Format settings, BVOP : No
Format settings, QPel : No
Format settings, GMC : No warppoints
Format settings, Matrix : Default (H.263)
Codec ID : DIVX
Codec ID/Info : Project Mayo
Codec ID/Hint : DivX 4
Duration : 1h 25mn
Bit rate : 1 199 Kbps
Width : 720 pixels
Height : 576 pixels
Display aspect ratio : 5/4
Frame rate : 25.000 fps
Standard : PAL
Resolution : 24 bits
Colorimetry : 4:2:0
Scan type : Progressive
Bits/(Pixel*Frame) : 0.116
Stream size : 736 MiB (89%)
Writing library : avc2.0.11.1110

Audio
ID : 1
Format : MPEG Audio
Format version : Version 1
Format profile : Layer 3
Codec ID : 55
Codec ID/Hint : MP3
Duration : 1h 25mn
Bit rate mode : Constant
Bit rate : 128 Kbps
Channel(s) : 2 channels
Sampling rate : 48.0 KHz
Resolution : 16 bits
Stream size : 78.6 MiB (10%)
Alignment : Aligned on interleaves
Interleave, duration : 24 ms (0.60 video frame)

Link: http://www.imdb.com/title/tt1305871/

related torrents

Torrent name

health leech seeds Size
 

comments (0)

Main Menu