Drama

The Mysterious Lady (1928) DVDRip big dad e

  • Download 5x Faster
  • Download torrent
  • Direct Download
  • Rate this torrent +  |  -
The Mysterious Lady (1928) DVDRip big dad e

Free and Direct Download with Usenet.nl 300GB+ free


Torrent info

Name:The Mysterious Lady (1928) DVDRip big dad e

Total Size: 625.08 MB

Magnet: Magnet Link

Seeds: 0

Leechers: 0

Stream: Watch Online @ Movie4u

Last Updated: 2016-02-01 07:45:09 (Update Now)

Torrent added: 2009-09-11 06:31:29





Torrent Files List


MYSTERIOUS LADY DVDRip big dad e.mp4 (Size: 625.08 MB) (Files: 6)

 MYSTERIOUS LADY DVDRip big dad e.mp4

625.03 MB

 Garbo Silents.jpg

33.99 KB

 big_dad_e.jpg

17.05 KB

 big_dad_E.txt

2.94 KB

 Torrent downloaded from Demonoid.com.txt

0.05 KB

 tracked_by_h33t_com.txt

0.02 KB
 

tracker

leech seeds
 

Torrent description

Director: Fred Niblo (silent with an orchestral score)

Austrian Captain Karl von Raden attends the opera one evening, and meets Tania. After the performance, he takes her home, and the two of them spend the next day on a romantic outing. That evening, Karl must deliver some important plans to Berlin. Just before boarding his train, he learns that Tania is really a Russian spy. She comes to see him aboard the train, and admits that she set things up on purpose so as to meet him, but she also insists that she truly has fallen in love with him. When Karl rebuffs her coldly, she steals the plans, which leads to him being court-martialed and imprisoned. Karl's influential uncle is able to provide him with one last chance to clear his name. Written by Snow Leopard

File Confirmation:
General
Complete name : C:\Documents and Settings\Owner\Desktop\conv\Torrent_convert\The Mysterious Lady (1928) DVDRip big dad e\MYSTERIOUS LADY DVDRip big dad e.mp4
Format : MPEG-4
Format profile : Base Media
Codec ID : isom
File size : 625 MiB
Duration : 1h 29mn
Overall bit rate : 977 Kbps
Movie name : MYSTERIOUS_LADY_DVDRip_big_dad_e
Encoded date : UTC 2009-09-09 03:35:56
Tagged date : UTC 2009-09-09 03:35:56
Comment : QuickTime 6.0 or greater

Video
ID : 1
Format : MPEG-4 Visual
Format profile : [email protected]
Format settings, BVOP : No
Format settings, QPel : No
Format settings, GMC : No warppoints
Format settings, Matrix : Default (H.263)
Codec ID : 20
Duration : 1h 29mn
Bit rate mode : Constant
Bit rate : 861 Kbps
Nominal bit rate : 768 Kbps
Width : 320 pixels
Height : 240 pixels
Display aspect ratio : 4:3
Frame rate mode : Constant
Frame rate : 29.970 fps
Resolution : 24 bits
Colorimetry : 4:2:0
Scan type : Progressive
Bits/(Pixel*Frame) : 0.374
Stream size : 550 MiB (88%)
Writing library : XviD 1.1.0 (UTC 2005-11-22)
Encoded date : UTC 2009-09-09 03:35:56
Tagged date : UTC 2009-09-09 03:35:56

Audio
ID : 2
Format : AAC
Format/Info : Advanced Audio Codec
Format version : Version 4
Format profile : LC
Format settings, SBR : No
Codec ID : 40
Duration : 1h 29mn
Bit rate mode : Constant
Bit rate : 112 Kbps
Channel(s) : 2 channels
Channel positions : L R
Sampling rate : 48.0 KHz
Resolution : 16 bits
Stream size : 71.6 MiB (11%)
Encoded date : UTC 2009-09-09 03:35:56
Tagged date : UTC 2009-09-09 03:35:56

File Scan:
Malwarebytes' Anti-Malware 1.41
Database version: 2775
Windows 5.1.2600 Service Pack 3

9/10/2009 5:26:34 PM
mbam-log-2009-09-10 (17-26-34).txt

Scan type: Quick Scan
Objects scanned: 1
Time elapsed: 10 second(s)

Memory Processes Infected: 0
Memory Modules Infected: 0
Registry Keys Infected: 0
Registry Values Infected: 0
Registry Data Items Infected: 0
Folders Infected: 0
Files Infected: 0

Memory Processes Infected:
(No malicious items detected)

Memory Modules Infected:
(No malicious items detected)

Registry Keys Infected:
(No malicious items detected)

Registry Values Infected:
(No malicious items detected)

Registry Data Items Infected:
(No malicious items detected)

Folders Infected:
(No malicious items detected)

Files Infected:
(No malicious items detected)
http://www.imdb.com/title/tt0019195/
Quicktime for iPod

related torrents

Torrent name

health leech seeds Size
 

comments (0)

Main Menu